Торренты   
 
 


Joe Satriani: Satchurated - Live in Montreal (2010) [2012, BDrip, halfOU, Anamorph OverUnder]

Рейтинг 3D:
5 голосов
5.5
Рейтинг фильма:
5 голосов
3.1
 
Вы должны быть авторизированы,
чтобы ставить оценки


Joe Satriani: Satchurated - Live in Montreal (2010)
Год выпуска: 2012
Страна: США (Cinemusica, Strange Beautiful Music)
Жанр: Музыка, Rock
Продолжительность: 02:24:06
Режиссер: Pierre & Francois Lamoureux
Состав группы:
Joe Satriani - Lead Guitar
Jeff Campitelli - Drums
Galen Henson - Rhythm Guitar
Mike Keneally - Keyboards
Allen Whitman - Bass
Описание:
Данный концерт был снят "вживую" во время Wormhole Tour в поддержку нового альбома Сатриани Black Swans and Wormhole Wizards в концертном зале Le Metropolis, Montreal, Canada 12 декабря 2010г. Восемь камер снимали этот концерт в 2D и 3D форматах.
Джо Сатриани является одним из современных лидеров рок-музыки; был признан шестым в списке лучших гитаристов всех времён by Guitarist Magazine (Великобритания) и трижды лучшим гитаристом года by Guitar World Magazine. За свою карьеру Сатриани продал более 10 миллионов копий своих студийных и концертных записей по всему миру, был номинирован на 15 премий Грэмми® и продал более 4 миллионов билетов на свои концерты.
Доп. информация:
Бонус-трек Two Sides To Every Story "приклеил" к концерту.
Звук - один из "родных" с БД (без перекодирования).
Другой был - TrueHD/AC3, English, 7.1 channels, 7505 kbps, 96kHz (embedded: AC3, 5.1 channels, 448kbps, 48kHz) - 7,76 ГБ (в данный релиз не включён).
Третий был - RAW/PCM, English, 2.0 channels, 2304 kbps, 24 bits, 48kHz - 2,25 ГБ (в данный релиз не включён).--За исходник спасибо zhekon88! Проверено на встроенном плейере ТВ Samsung UE-C7000--Формат 3d: Anamorph OverUnder
Качество: BDrip
Контейнер: MKV
Формат 3D: Half OverUnder / Вертикальная анаморфная стереопара
Порядок ракурсов: левый ракурс первый
Видео кодек: x264
Аудио кодек: AC3
Видео: AVC / 23,976 fps / 1920х1080p / 15.8 Mbps
Аудио: AC3 / 48 KHz / 5.1 ch / 448 Kbps

MediaInfo

General
UniqueID : 184781898734056441709874993112139684696 (0x8B03B2FE75FC56259B5F16577F93DB58)
Complete name : F:\Downloads\JoeSatriani.Satchurated(3D)2012.halfOU(ash61).mkv
Format : Matroska
File size : 16.7 GiB
Duration : 2h 24mn
Overall bit rate : 16.6 Mbps
Movie name : Joe Satriani: Satchurated - Live in Montreal (2010) (3D) 2012 (ash61)
Encoded date : UTC 2012-04-30 12:51:49
Writing application : mkvmerge v3.4.0 ('Rapunzel') сборка от May 15 2010 09:38:20
Writing library : libebml v0.8.0 + libmatroska v0.9.0
Video
ID : 1
Format : AVC
Format/Info : Advanced Video Codec
Format profile : High@L4.1
Format settings, CABAC : Yes
Format settings, ReFrames : 4 frames
Codec ID : V_MPEG4/ISO/AVC
Duration : 2h 24mn
Bit rate : 15.8 Mbps
Width : 1 920 pixels
Height : 1 080 pixels
Display aspect ratio : 16:9
Frame rate : 23.976 fps
Color space : YUV
Chroma subsampling : 4:2:0
Bit depth : 8 bits
Scan type : Progressive
Bits/(Pixel*Frame) : 0.318
Stream size : 15.9 GiB (95%)
Title : BDrip by ash61
Writing library : x264 core 119 r2106 07efeb4
Encoding settings : cabac=1 / ref=4 / deblock=1:-3:-3 / analyse=0x3:0x113 / me=umh / subme=9 / psy=1 / psy_rd=1.00:0.15 / mixed_ref=1 / me_range=16 / chroma_me=1 / trellis=2 / 8x8dct=1 / cqm=0 / deadzone=21,11 / fast_pskip=1 / chroma_qp_offset=-3 / threads=3 / sliced_threads=0 / nr=0 / decimate=1 / interlaced=0 / bluray_compat=0 / constrained_intra=0 / bframes=6 / b_pyramid=2 / b_adapt=2 / b_bias=0 / direct=3 / weightb=1 / open_gop=0 / weightp=2 / keyint=250 / keyint_min=23 / scenecut=40 / intra_refresh=0 / rc_lookahead=60 / rc=crf / mbtree=1 / crf=18.0 / qcomp=0.70 / qpmin=0 / qpmax=69 / qpstep=4 / vbv_maxrate=40000 / vbv_bufsize=40000 / crf_max=0.0 / nal_hrd=none / ip_ratio=1.40 / aq=1:0.70
Audio
ID : 2
Format : AC-3
Format/Info : Audio Coding 3
Mode extension : CM (complete main)
Codec ID : A_AC3
Duration : 2h 24mn
Bit rate mode : Constant
Bit rate : 448 Kbps
Channel(s) : 6 channels
Channel positions : Front: L C R, Side: L R, LFE
Sampling rate : 48.0 KHz
Bit depth : 16 bits
Compression mode : Lossy
Stream size : 462 MiB (3%)
Language : English
Menu
00:00:00.000 : :Ice 9
00:04:59.591 : :Hordes of Locusts
00:09:55.261 : :Flying in a Blue Dream
00:16:28.196 : :Light Years Away
00:22:54.999 : :Memories
00:31:51.159 : :War
00:38:17.420 : :Premonition
00:42:48.983 : :Satch Boogie
00:47:46.280 : :Revelation
00:55:32.204 : :Pyrrhic Victoria
01:00:50.188 : :Crystal Planet
01:06:33.823 : :The Mystical Potato Head Groove Thing
01:13:19.895 : :Dream Song
01:18:20.321 : :God Is Crying
01:26:22.219 : :Andalusia
01:32:40.472 : :Solitude
01:37:28.384 : :Littleworth Lane
01:44:38.606 : :Why
01:53:43.775 : :Wind in the Trees
01:57:32.545 : :Always with Me, Always with You
02:05:55.423 : :Big Bad Moon
02:10:20.271 : :Crowd Chant
02:17:10.431 : :Summer Song
02:19:42.993 : :Two Sides To Every Story (Bonus Track)

Скриншоты

TrackList

01. Ice 9
02. Hordes of Locusts
03. Flying in a Blue Dream
04. Light Years Away
05. Memories
06. War
07. Premonition
08. Satch Boogie
09. Revelation
10. Pyrrhic Victoria
11. Crystal Planet
12. The Mystical Potato Head Groove Thing
13. Dream Song
14. God Is Crying
15. Andalusia
16. Solitude
17. Littleworth Lane
18. Why
19. Wind in the Trees
20. Always with Me, Always with You
21. Big Bad Moon
22. Crowd Chant
23. Summer Song
24. Two Sides To Every Story (Bonus)
Благодарности релизеру (6)

Торрент:

Статус:

Размер:

Зарегистрирован   [ 2012-04-30 20:08 ]

проверено

16.71 GB

 
 Мнение о фильме (5)





Как и на паралельном трекере:
Спасибо. Скачаю - останусь на поддержке.
Joe Satriani в 3D от Ash61 - однозначно шедевр.
 

Спасибо! Супер!
 

виликолепно
 

смотреть концерт ради 3д?..это глупость..удалил.
 

Спасибо, ash61!!!Вы как всегда на высоте!!! А ещё хочется джаза!!!!)))