Торренты   
 
 


Турист Трофи. На Грани Возможного 3D / TT3D: Closer to the Edge 3D (Richard De Aragues) [2011 г., Anamorph OverUnder]

Рейтинг 3D:
Пока никто не голосовал
Рейтинг фильма:
1 голосов
9.0
 
Вы должны быть авторизированы,
чтобы ставить оценки


Турист Трофи. На Грани Возможного 3D / TT3D: Closer to the Edge 3D
Год выпуска: 2011
Страна: Великобритания
Жанр: Документальный, Спорт, Мотогонки
Продолжительность: 01:43:35
Перевод: Любительский (одноголосый)
Режиссер: Richard De Aragues
В ролях: Гай Мартин, Йен Хатчинсон, Конор Камминс, Джон МакГиннесс, Майкл Данлоп, Кейт Амор, Брюс Энсти, Джон Бартон, Пол Доббс, Камерон Дональд, Райан Фаркуар
Описание: Гонки Tourist Trophy (ТТ) проводятся на острове Мэн (Великобритания) на горной трассе длиной 59,6 километра с 1907 года. Несмотря на то, что дорожные гонки сейчас проводятся в разных уголках планеты – от Бельгии до Новой Зеландии – британский остров Мэн остается настоящей Меккой подобного рода соревнований. Гонка проводится в пяти классах: TT Superbike (1000 кубиков), TT Superstock (1000 кубиков), Supersport (600сс), Senior TT (1000 кубиков) и Sidecar (с коляской) . В зависимости от класса, гонщикам нужно проехать от трех до шести 60-километровых кругов. Максимальное количество гонщиков, которые могут принять участие в каждом из классов – 85. Допускается участие одних и тех же гонщиков на одних и тех же машинах в нескольких классах (если мотоцикл соответствует требованиям этих классов).
Примечательно, что гонка проводится в одном из самых спокойных и тихих районов острова, который на две недели в году превращается из тихой английской глубинки в шумный оазис мотоциклистов. Мероприятие практически всегда проводится в последнюю неделю мая и первую неделю июня и благодаря множеству сопутствующих событий и особой атмосфере превращается в настоящий карнавал. Вдоль трассы собираются туристы, журналисты, байкеры, снимают на фото и видео, жарят шашлыки, пьют пиво, тусуются и общаются.
Tourist Trophy – не только одна из самых зрелищных, но и одна из самых опасных гонок в мире. За ее более чем столетнюю историю на острове Мэн погибли более 233 человек.
Формат 3d: Anamorph OverUnder
Видео: Видео: AVC/1920х1080p /23,976 fps /12.2 Mbps

Скриншоты



MediaInfo

F:\ТОРРЕНТЫ\Загружено\TT.Closer.to.the.Edge.2011.3D.RUS(stereo).mkv
General
Unique ID : 195750724766045707771702535273161859147 (0x934437DEFC5CD044927E879F4A0AA04B)
Complete name : F:\ТОРРЕНТЫ\Загружено\TT.Closer.to.the.Edge.2011.3D.RUS(stereo).mkv
Format : Matroska
Format version : Version 2
File size : 9.73 GiB
Duration : 1h 43mn
Overall bit rate : 13.4 Mbps
Movie name : TT: Closer To The Edge-3D(русглос.рф)
Encoded date : UTC 2012-03-16 18:05:13
Writing application : mkvmerge v4.9.1 ('Ich will') сборка от Jul 11 2011 23:53:15
Writing library : libebml v1.2.1 + libmatroska v1.1.1
Video #1
ID : 1
Format : AVC
Format/Info : Advanced Video Codec
Format profile : High@L4.1
Format settings, CABAC : Yes
Format settings, ReFrames : 4 frames
Muxing mode : Header stripping
Codec ID : V_MPEG4/ISO/AVC
Duration : 1h 43mn
Bit rate : 12.2 Mbps
Width : 1 920 pixels
Height : 1 080 pixels
Display aspect ratio : 16:9
Frame rate : 23.976 fps
Color space : YUV
Chroma subsampling : 4:2:0
Bit depth : 8 bits
Scan type : Progressive
Bits/(Pixel*Frame) : 0.246
Stream size : 8.84 GiB (91%)
Title : BDrip by ash61
Writing library : x264 core 113 r1884 7313bb5
Encoding settings : cabac=1 / ref=4 / deblock=1:-3:-3 / analyse=0x3:0x113 / me=umh / subme=9 / psy=1 / psy_rd=1.00:0.15 / mixed_ref=1 / me_range=16 / chroma_me=1 / trellis=1 / 8x8dct=1 / cqm=0 / deadzone=21,11 / fast_pskip=1 / chroma_qp_offset=-3 / threads=3 / sliced_threads=0 / nr=0 / decimate=1 / interlaced=0 / constrained_intra=0 / bframes=6 / b_pyramid=2 / b_adapt=2 / b_bias=0 / direct=3 / weightb=1 / open_gop=0 / weightp=2 / keyint=250 / keyint_min=23 / scenecut=40 / intra_refresh=0 / rc_lookahead=60 / rc=crf / mbtree=1 / crf=18.0 / qcomp=0.70 / qpmin=0 / qpmax=69 / qpstep=4 / ip_ratio=1.40 / aq=1:0.70
Default : Yes
Forced : No
Audio #2
ID : 2
Format : MPEG Audio
Format version : Version 1
Format profile : Layer 3
Muxing mode : Header stripping
Codec ID : A_MPEG/L3
Codec ID/Hint : MP3
Duration : 1h 43mn
Bit rate mode : Constant
Bit rate : 320 Kbps
Channel(s) : 2 channels
Sampling rate : 48.0 KHz
Compression mode : Lossy
Stream size : 237 MiB (2%)
Writing library : LAME3.99r
Encoding settings : -m s -V 4 -q 3 -lowpass 20.5
Default : No
Forced : No
Audio #3
ID : 3
Format : AC-3
Format/Info : Audio Coding 3
Mode extension : CM (complete main)
Muxing mode : Header stripping
Codec ID : A_AC3
Duration : 1h 43mn
Bit rate mode : Constant
Bit rate : 640 Kbps
Channel(s) : 6 channels
Channel positions : Front: L C R, Side: L R, LFE
Sampling rate : 48.0 KHz
Bit depth : 16 bits
Compression mode : Lossy
Stream size : 474 MiB (5%)
Language : English
Default : Yes
Forced : No
Благодарности релизеру (2)

Торрент:

Статус:

Размер:

Зарегистрирован   [ 2012-05-01 01:42 ]

проверено

9.73 GB