Торренты   
 
 


Шрек навсегда / Шрек 4 в 3Д / Shrek Forever After 3D (Майк Митчел / Mike Mitchell) [2010 г., Anamorph OverUnder]

Рейтинг 3D:
8 голосов
6.6
Рейтинг фильма:
8 голосов
7.4
 
Вы должны быть авторизированы,
чтобы ставить оценки


Шрек навсегда / Шрек 4 в 3Д / Shrek Forever After 3D
Год выпуска: 2010
Страна: США
Жанр: мультфильм, фэнтези, комедия, приключения
Продолжительность: 01:33:10
Перевод: Профессиональный (дублированный) лицензия
Русские субтитры: есть
Режиссер на русском: Майк Митчел
Режиссер на английском: Mike Mitchellr
Роли исполняли (Дублировали):
Шрек - Майк Майерс (Алексей Колган)
Осел - Эдди Мёрфи (Вадим Андреев)
Фиона - Кэмерон Диаз (Жанна Никонова)
Кот в сапогах - Антонио Бандерас (Всеволод Кузнецов)
Румпельштильцхен - Уолт Дорн (Илья Бледный)
Гретхед - Джейн Линч (Инна Королёва)
Описание: Чем бы еще заняться огру, который уже сразился со злым драконом, спас прекрасную принцессу и уберег от беды королевство родственников по линии жены? Что ж, если вы Шрек, то, сами того не заметив, вы вдруг сядете дома и станете наслаждаться покоем в кругу семьи. Вместо того чтобы как раньше пугать деревенских жителей, теперь Шрек, хоть и с неохотой, но соглашается оставлять автографы на их вилах. А куда же подевался знаменитый рык этого огра?
Под грузом воспоминаний о днях, когда он чувствовал себя «настоящим огром», Шрэк поддается на уговоры сладкоголосого Румпельштильцхена и заключает с ним договор. Сразу после этого Шрек оказывается в альтернативной реальности Тридевятого королевства, где все поставлено с ног на голову: на огров здесь охотятся, Румпельштильцхен восседает на троне, а Шрек и Фиона даже не знакомы. И теперь только сам Шрэк может исправить все, что он натворил, чтобы спасти друзей, восстановить привычный ему порядок вещей и вернуть себе свою единственную Истинную Любовь.--

--Качество: BDrip
Контейнер: MKV
Формат 3D: Anamorph OverUnder/Вертикальная анаморфная стереопара
Порядок ракурсов: левый ракурс первый
Видео кодек: x264
Аудио кодек: AC3
Видео: AVC / 1920х1080p / 23.976 fps / 6576 kbps
Аудио 1: Русский / AC3 / 48.0 KHz / 5.1 ch / 640 Kbps
Аудио 2: Русский / AC3 / 48.0 KHz / 2.0 ch / 320 Kbps - Гаврилов (одноголосый)
Аудио 3: Украинский
/ AC3 / 48.0 KHz / 5.1 ch /640Kbps
Аудио 4:Английский / AC3 / 48.0 KHz / 5.1 ch /640 Kbps
Субтитры:вшитые srt Rus [полные],Ukrainian [полные],English (full)

MediaInfo

Общее
Уникальный идентификатор : 215556812267664882556617841298139311750 (0xA22ABB60D519072E9FA8C0563F98EE86)
Полное имя : E:\кино\Shrek.Forever.After (3D).2010.1080p.x264.DD 5.1.rus.ukr.eng(m@rik05).mkv
Формат : Matroska
Версия формата : Version 2
Размер файла : 5,85 Гбайт
Продолжительность : 1 ч. 33 м.
Общий поток : 8995 Кбит/сек
Название фильма : Shrek.Forever.After (3D).2010 Rip by m@rik05
Дата кодирования : UTC 2012-05-05 14:33:46
Программа кодирования : mkvmerge v3.4.0 ('Rapunzel') сборка от May 15 2010 09:38:20
Библиотека кодирования : libebml v0.8.0 + libmatroska v0.9.0
Видео
Идентификатор : 1
Формат : AVC
Формат/Информация : Advanced Video Codec
Профиль формата : High@L4.1
Параметр CABAC формата : Да
Параметр ReFrames формата : 4 кадра
Идентификатор кодека : V_MPEG4/ISO/AVC
Продолжительность : 1 ч. 33 м.
Битрейт : 6576 Кбит/сек
Ширина : 1920 пикселей
Высота : 1080 пикселей
Соотношение сторон : 16:9
Частота кадров : 23,976 кадра/сек
Цветовое пространство : YUV
Субдискретизация насыщенности : 4:2:0
Битовая глубина : 8 бит
Тип развёртки : Прогрессивная
Бит/(Пиксели*Кадры) : 0.132
Размер потока : 4,28 Гбайт (73%)
Библиотека кодирования : x264 core 120 r2164 da19765
Настройки программы : cabac=1 / ref=4 / deblock=1:-3:-3 / analyse=0x3:0x133 / me=umh / subme=9 / psy=1 / psy_rd=1.00:0.15 / mixed_ref=1 / me_range=16 / chroma_me=1 / trellis=2 / 8x8dct=1 / cqm=0 / deadzone=21,11 / fast_pskip=1 / chroma_qp_offset=-3 / threads=6 / sliced_threads=0 / nr=0 / decimate=1 / interlaced=0 / bluray_compat=0 / constrained_intra=0 / bframes=6 / b_pyramid=2 / b_adapt=2 / b_bias=0 / direct=3 / weightb=1 / open_gop=0 / weightp=2 / keyint=250 / keyint_min=23 / scenecut=40 / intra_refresh=0 / rc_lookahead=60 / rc=crf / mbtree=1 / crf=18.0 / qcomp=0.70 / qpmin=0 / qpmax=69 / qpstep=4 / vbv_maxrate=40000 / vbv_bufsize=40000 / crf_max=0.0 / nal_hrd=none / ip_ratio=1.40 / aq=1:0.80
Default : Да
Forced : Нет
Аудио #1
Идентификатор : 2
Формат : AC-3
Формат/Информация : Audio Coding 3
Расширение режима : CM (complete main)
Параметр Endianness формата : Big
Идентификатор кодека : A_AC3
Продолжительность : 1 ч. 33 м.
Вид битрейта : Постоянный
Битрейт : 640 Кбит/сек
Каналы : 6 каналов
Расположение каналов : Front: L C R, Side: L R, LFE
Частота : 48,0 КГц
Битовая глубина : 16 бит
Метод сжатия : С потерями
Задержка видео : 24 мс.
Размер потока : 427 Мбайт (7%)
Заголовок : дудляж
Язык : Russian
Default : Да
Forced : Да
Аудио #2
Идентификатор : 3
Формат : AC-3
Формат/Информация : Audio Coding 3
Расширение режима : CM (complete main)
Параметр Endianness формата : Big
Идентификатор кодека : A_AC3
Продолжительность : 1 ч. 33 м.
Вид битрейта : Постоянный
Битрейт : 320 Кбит/сек
Каналы : 2 канала
Расположение каналов : Front: L R
Частота : 48,0 КГц
Битовая глубина : 16 бит
Метод сжатия : С потерями
Задержка видео : 8 мс.
Размер потока : 213 Мбайт (4%)
Заголовок : одноголосый (закадровый)авторский Гаврилов
Язык : Russian
Default : Нет
Forced : Нет
Аудио #3
Идентификатор : 4
Формат : AC-3
Формат/Информация : Audio Coding 3
Расширение режима : CM (complete main)
Параметр Endianness формата : Big
Идентификатор кодека : A_AC3
Продолжительность : 1 ч. 33 м.
Вид битрейта : Постоянный
Битрейт : 640 Кбит/сек
Каналы : 6 каналов
Расположение каналов : Front: L C R, Side: L R, LFE
Частота : 48,0 КГц
Битовая глубина : 16 бит
Метод сжатия : С потерями
Задержка видео : 24 мс.
Размер потока : 427 Мбайт (7%)
Заголовок : дубляж
Язык : Ukrainian
Default : Нет
Forced : Нет
Аудио #4
Идентификатор : 5
Формат : AC-3
Формат/Информация : Audio Coding 3
Расширение режима : CM (complete main)
Параметр Endianness формата : Big
Идентификатор кодека : A_AC3
Продолжительность : 1 ч. 33 м.
Вид битрейта : Постоянный
Битрейт : 640 Кбит/сек
Каналы : 6 каналов
Расположение каналов : Front: L C R, Side: L R, LFE
Частота : 48,0 КГц
Битовая глубина : 16 бит
Метод сжатия : С потерями
Задержка видео : 24 мс.
Размер потока : 427 Мбайт (7%)
Заголовок : оригинал DD 5.1
Язык : English
Default : Нет
Forced : Нет
Текст #1
Идентификатор : 6
Формат : UTF-8
Идентификатор кодека : S_TEXT/UTF8
Идентификатор кодека/Информация : UTF-8 Plain Text
Заголовок : полные
Язык : Russian
Default : Нет
Forced : Нет
Текст #2
Идентификатор : 7
Формат : UTF-8
Идентификатор кодека : S_TEXT/UTF8
Идентификатор кодека/Информация : UTF-8 Plain Text
Заголовок : полные
Язык : Ukrainian
Default : Нет
Forced : Нет
Текст #3
Идентификатор : 8
Формат : UTF-8
Идентификатор кодека : S_TEXT/UTF8
Идентификатор кодека/Информация : UTF-8 Plain Text
Заголовок : фулл
Язык : English
Default : Нет
Forced : Нет
Меню
00:00:00.000 : en:00:00:00.000
00:05:32.707 : en:00:05:32.707
00:12:44.389 : en:00:12:44.389
00:19:45.351 : en:00:19:45.351
00:24:42.981 : en:00:24:42.981
00:31:36.603 : en:00:31:36.603
00:37:54.564 : en:00:37:54.564
00:42:39.098 : en:00:42:39.098
00:48:34.370 : en:00:48:34.370
00:54:25.471 : en:00:54:25.471
00:59:57.344 : en:00:59:57.344
01:05:51.823 : en:01:05:51.823
01:10:34.856 : en:01:10:34.856
01:15:08.212 : en:01:15:08.212
01:20:00.587 : en:01:20:00.587
01:26:05.535 : en:01:26:05.535

Скриншоты

Остальные раздачи этого фильма (5)
Благодарности релизеру (5)

Торрент:

Статус:

Размер:

Зарегистрирован   [ 2012-05-05 23:17 ]

проверено

5.85 GB