Торренты   
 
 


Ронал-варвар / Ronal Barbaren (Крестен Вестбьерг Андерсен) [2011 г., Anaglyph, red'cyan]

Рейтинг 3D:
Пока никто не голосовал
Рейтинг фильма:
Пока никто не голосовал
 
Вы должны быть авторизированы,
чтобы ставить оценки


Ронал-варвар / Ronal Barbaren
Год выпуска: 2011
Страна: Дания
Жанр: мультфильм, фэнтези, приключения
Продолжительность: 01:29:16
Перевод: Профессиональный (полное дублирование)
Режиссер: Крестен Вестбьерг Андерсен / Kresten Vestbjerg Andersen
В ролях: Андерс Юль, Хади Ка-Куш, Лерке Винтер Андерсен, Бриджитт Нильсен, Брайан Лукке, Ларс Миккельсен, Питер Од, Ларс Бом, Оле Теструп, Пребен Кристенсен, Оле Эрнст
Роли озвучивали: Николай Быстров, Александр Пушной, Мария Кожевникова, Никита Джигурда, Сергей Шнуров, Денис Ясик, Анатолий Хропов, Эвелина Блёданс, Сергей Мезенцев, Владимир Скворцов, Илья Барабанов
Описание: В начале мультипликационного фильма рассказывается легенда о происхождении варваров. Когда-то в старину их поработил могущественный демон Заал. И только могучий воин Крон сумел ему противостоять и поразил его своим мечом. Но одновременно демон в битве смертельно ранил Крона. Его крови напились освобождённые люди и обрели силу воина. Так и произошли варвары.
Главный герой не обладает силой воина, не испытывает тяги к походам и времяпрепровождению варваров. Но когда его племя порабощают, он становится единственным варваром, который может его спасти. Ему предстоит посетить шамана, отыскать реликвию и с помощью неё победить злодея. А в этом ему будут помогать музыкант-алебардист, девушка-воин и эльф-проводник..
Качество : BDrip
Формат 3d: Anaglyph(Дюбуа)
Цвета очков:

Видео: AVC / 1920х800 / 23,976 кадр/сек / 9,2 Мбит/сек
Аудио 1: Русский / AC3 / 48 KHz / 5.1 ch / 448 Kbps
Аудио 2: Датский / DTS / 48 KHz / 5.1 ch / 1510 Kbps

MediaInfo

General
Unique ID : 216721342684230954163673620009113771514 (0xA30B03292128C89D8E77496D87BE5DFA)
Complete name : D:\ВИДЕО\Ронал-варвар.mkv
Format : Matroska
Format version : Version 2
File size : 6.85 GiB
Duration : 1h 29mn
Overall bit rate : 11.0 Mbps
Encoded date : UTC 2012-05-07 06:30:00
Writing application : mkvmerge v5.4.0 ('Piper') built on Mar 10 2012 13:34:39
Writing library : libebml v1.2.3 + libmatroska v1.3.0
Video
ID : 1
Format : AVC
Format/Info : Advanced Video Codec
Format profile : High@L4.1
Format settings, CABAC : Yes
Format settings, ReFrames : 5 frames
Codec ID : V_MPEG4/ISO/AVC
Duration : 1h 29mn
Bit rate : 9 200 Kbps
Width : 1 920 pixels
Height : 800 pixels
Display aspect ratio : 2.40:1
Frame rate : 23.976 fps
Color space : YUV
Chroma subsampling : 4:2:0
Bit depth : 8 bits
Scan type : Progressive
Bits/(Pixel*Frame) : 0.250
Stream size : 5.50 GiB (80%)
Writing library : x264 core 120 r2120bm 0c7dab9
Encoding settings : cabac=1 / ref=5 / deblock=1:1:1 / analyse=0x3:0x113 / me=umh / subme=8 / psy=1 / psy_rd=0.40:0.00 / mixed_ref=1 / me_range=16 / chroma_me=1 / trellis=1 / 8x8dct=1 / cqm=0 / deadzone=21,11 / fast_pskip=1 / chroma_qp_offset=-2 / threads=6 / sliced_threads=0 / nr=0 / decimate=1 / interlaced=0 / bluray_compat=0 / constrained_intra=0 / bframes=5 / b_pyramid=2 / b_adapt=2 / b_bias=0 / direct=3 / weightb=1 / open_gop=0 / weightp=2 / keyint=250 / keyint_min=23 / scenecut=40 / intra_refresh=0 / rc_lookahead=50 / rc=abr / mbtree=1 / bitrate=9200 / ratetol=1.0 / qcomp=0.60 / qpmin=0 / qpmax=69 / qpstep=4 / ip_ratio=1.40 / aq=1:0.60
Default : Yes
Forced : No
Audio #1
ID : 2
Format : AC-3
Format/Info : Audio Coding 3
Mode extension : CM (complete main)
Codec ID : A_AC3
Duration : 1h 29mn
Bit rate mode : Constant
Bit rate : 448 Kbps
Channel(s) : 6 channels
Channel positions : Front: L C R, Side: L R, LFE
Sampling rate : 48.0 KHz
Bit depth : 16 bits
Compression mode : Lossy
Stream size : 286 MiB (4%)
Language : Russian
Default : Yes
Forced : No
Audio #2
ID : 3
Format : DTS
Format/Info : Digital Theater Systems
Codec ID : A_DTS
Duration : 1h 29mn
Bit rate mode : Constant
Bit rate : 1 510 Kbps
Channel(s) : 6 channels
Channel positions : Front: L C R, Side: L R, LFE
Sampling rate : 48.0 KHz
Bit depth : 16 bits
Compression mode : Lossy
Stream size : 964 MiB (14%)
Language : Danish
Default : No
Forced : No

Скриншоты


Благодарности релизеру (0)

Торрент:

Статус:

Размер:

Зарегистрирован   [ 2012-05-07 13:20 ]

проверено

6.85 GB