Торренты   
 
 


3Д Погружение - Том 1: Жизнь в затонувшем корабле / Dive 3D - Volume 1: Leben im Schiffswrack / Dive 3D - Volume 1: Life In The ShipWreck [2011, BDrip, half1080p, Anamorph OverUnder]

Рейтинг 3D:
Пока никто не голосовал
Рейтинг фильма:
Пока никто не голосовал
 
Вы должны быть авторизированы,
чтобы ставить оценки


-3Д Погружение - Том 1:
Жизнь в затонувшем корабле
Dive 3D - Volume 1: Leben im SchiffswrackDive 3D - Volume 1: Life In The ShipWreck

Год выпуска: 2011
Страна: Германия (New KSM, WildEarth Media)
Жанр: Документальный, Видовой
Продолжительность: 01:00:37
Перевод: Отсутствует
Режиссер: Graham Wallington
Рассказчик: Graham Wallington
Описание: "Погрузимся в синеву - в красивый, но странный мир. Там мы увидим пятнистых скатов, мурен ... и, конечно же, любимую всеми рыбу-клоуна. Проплывём через коралловые рифы Красного моря, рассматривая его интереснейший животный мир. Кульминацией экскурсии является погружение глубоко на дно океана внутрь затонувшего корабля, в этот живописный и красочный мир."
Доп. информация: Голос рассказчика записан в плохой акустике. Видео тоже не блещет качеством. 3Д в норме.--Dive 3D Vol.2 - тут Проверено на встроенном плейере ТВ Samsung UE-C7000--Формат 3d: Anamorph OverUnder
Качество: BDrip
Контейнер: MKV
Видео: AVC / 23,976 fps / 1920х1080p / 20.6 Mbps
Аудио: Английский / AC3 / 48 KHz / 2 ch / 448 Kbps

MediaInfo

General
UniqueID : 178347225767853137127736755953933599115 (0x862C6D1F67F9E125B4D3427BF399C18B)
Complete name : F:\Downloads\Dive3D-LebenImSchiffswrack(3D)2011.halfOU(Ash61).mkv
Format : Matroska
File size : 9.08 GiB
Duration : 1h 0mn
Overall bit rate : 21.5 Mbps
Movie name : Dive 3D - Volume 1: Leben im Schiffswrack (3D) 2011 (Ash61)
Encoded date : UTC 2012-05-09 11:44:20
Writing application : mkvmerge v3.4.0 ('Rapunzel') сборка от May 15 2010 09:38:20
Writing library : libebml v0.8.0 + libmatroska v0.9.0
Video
ID : 1
Format : AVC
Format/Info : Advanced Video Codec
Format profile : High@L4.1
Format settings, CABAC : Yes
Format settings, ReFrames : 4 frames
Codec ID : V_MPEG4/ISO/AVC
Duration : 1h 0mn
Bit rate : 20.6 Mbps
Width : 1 920 pixels
Height : 1 080 pixels
Display aspect ratio : 16:9
Frame rate : 23.976 fps
Color space : YUV
Chroma subsampling : 4:2:0
Bit depth : 8 bits
Scan type : Progressive
Bits/(Pixel*Frame) : 0.414
Stream size : 8.71 GiB (96%)
Title : BDrip by Ash61
Writing library : x264 core 119 r2106 07efeb4
Encoding settings : cabac=1 / ref=4 / deblock=1:-3:-3 / analyse=0x3:0x113 / me=umh / subme=9 / psy=1 / psy_rd=1.00:0.15 / mixed_ref=1 / me_range=16 / chroma_me=1 / trellis=2 / 8x8dct=1 / cqm=0 / deadzone=21,11 / fast_pskip=1 / chroma_qp_offset=-3 / threads=3 / sliced_threads=0 / nr=0 / decimate=1 / interlaced=0 / bluray_compat=0 / constrained_intra=0 / bframes=6 / b_pyramid=2 / b_adapt=2 / b_bias=0 / direct=3 / weightb=1 / open_gop=0 / weightp=2 / keyint=250 / keyint_min=23 / scenecut=40 / intra_refresh=0 / rc_lookahead=60 / rc=crf / mbtree=1 / crf=18.0 / qcomp=0.70 / qpmin=0 / qpmax=69 / qpstep=4 / vbv_maxrate=40000 / vbv_bufsize=40000 / crf_max=0.0 / nal_hrd=none / frame-packing=4 / ip_ratio=1.40 / aq=1:0.70
Audio
ID : 2
Format : AC-3
Format/Info : Audio Coding 3
Mode extension : CM (complete main)
Codec ID : A_AC3
Duration : 1h 0mn
Bit rate mode : Constant
Bit rate : 448 Kbps
Channel(s) : 2 channels
Channel positions : Front: L R
Sampling rate : 48.0 KHz
Bit depth : 16 bits
Compression mode : Lossy
Stream size : 194 MiB (2%)
Language : English
Menu
00:00:00.000 : :1
00:00:59.351 : :2
00:07:25.820 : :3
00:11:54.422 : :4
00:16:35.995 : :5
00:21:18.777 : :6
00:25:46.587 : :7
00:32:34.327 : :8
00:37:15.733 : :9
00:42:55.656 : :10
00:47:57.291 : :11
00:53:01.261 : :12

Скриншоты

Благодарности релизеру (5)

Торрент:

Статус:

Размер:

Зарегистрирован   [ 2012-05-09 22:54 ]

проверено

9.08 GB