Торренты   
 
 

 

Шрек 3D / Shrek 3D (Эндрю Адамсон) мультфильм, фэнтези, комедия, приключения [2001 г,1080p, BDRip, Anamorph OverUnder]

Рейтинг 3D:
9 голосов
8.8
Рейтинг фильма:
9 голосов
8.6
 
Вы должны быть авторизированы,
чтобы ставить оценки


Шрек 3D / Shrek 3D
Год выпуска: 2001
Страна: США
Жанр: мультфильм, фэнтези, комедия, приключения
Продолжительность: 01:30:04
Перевод: Профессиональный (дублированный) лицензия
Русские субтитры: есть
Режиссер на русском: Эндрю Адамсон, Вики Дженсон
Режиссер на английском: Andrew Adamson, Vicky Jenson
Роли исполняли (Дублировали):
Шрек - Майк Майерс (Алексей Колган)
Осел - Эдди Мёрфи (Вадим Андреев)
Фиона - Кэмерон Диаз (Жанна Никонова)
Фаркуад - Джон Литгоу (Владимир Антоник)
РобинГуд - Венсан Кассель (Александр Груздев)
Описание: Жил да был в сказочном государстве большой зеленый великан по имени Шрек. Жил он в гордом одиночестве в лесу, на болоте, которое считал своим. Но однажды злобный коротышка — лорд Фаркуад, правитель волшебного королевства, безжалостно согнал на Шреково болото всех сказочных обитателей.
И беспечной жизни зеленого тролля пришел конец. Но лорд Фаркуад пообещал вернуть Шреку болото, если великан добудет ему прекрасную принцессу Фиону, которая томится в неприступной башне, охраняемой огнедышащим драконом…
Потрясающий мультфильм занял свое заслуженное место в пятерке самых кассовых мультфильмов всех времен.--Премьера: 22 апреля 2001
Бюджет: $60 000 000
Кассовые сборы: $484 409 218
релиз на Blu-Ray: 21 декабря 2010



--Качество: BDrip
Контейнер: MKV
Формат 3D: Anamorph OverUnder/Вертикальная анаморфная стереопара
Порядок ракурсов: левый ракурс первый
Видео кодек: x264
Аудио кодек: AC3
Видео: AVC / 1920х1080p / 23.976 fps / 7924 kbps
Аудио 1: Русский / AC3 / 48.0 KHz / 5.1 ch / 640 Kbps / Дубляж
Аудио 2: Русский / AC3 / 48.0 KHz / 5.1 ch / 448 Kbps / MVO (Киномания)
Аудио 3: Русский / AC3 / 48.0 KHz / 5.1 ch / 384 Kbps / MVO (Superbit)
Аудио 4: Русский / AC3 / 48.0 KHz / 5.1 ch / 448 Kbps / AVO (Гаврилов)
Аудио 5: Русский / AC3 / 48.0 KHz / 5.1 ch / 448 Kbps / AVO (Гоблин)
Аудио 6: Русский / AC3 / 48.0 KHz / 5.1 ch / 448 Kbps / AVO (Визгунов)
Аудио 7: Русский / AC3 / 48.0 KHz / 5.1 ch / 448 Kbps / AVO (Гланц)
Аудио 8: Английский / AC3 / 48.0 KHz / 5.1 ch / 640 Kbps / (оригинал)
Субтитры :Вшитые softsub
#1-Русские (полные)
#2-English (Full)

MediaInfo

Общее
Уникальный идентификатор : 236259338054127410153778137456527596776 (0xB1BDE4B48C79F3E0B864940CC0C4DCE8)
Полное имя : E:\кино\Shrek (3D).2001.1080p.x264.DD 5.1.rus.eng(m@rik05).mkv
Формат : Matroska
Версия формата : Version 2
Размер файла : 7,55 Гбайт
Продолжительность : 1 ч. 30 м.
Общий поток : 12,0 Мбит/сек
Название фильма : Shrek (3D) 2001.1080p.m@rik05
Дата кодирования : UTC 2012-05-11 17:16:46
Программа кодирования : mkvmerge v3.4.0 ('Rapunzel') сборка от May 15 2010 09:38:20
Библиотека кодирования : libebml v0.8.0 + libmatroska v0.9.0
Видео
Идентификатор : 1
Формат : AVC
Формат/Информация : Advanced Video Codec
Профиль формата : High@L4.1
Параметр CABAC формата : Да
Параметр ReFrames формата : 4 кадра
Идентификатор кодека : V_MPEG4/ISO/AVC
Продолжительность : 1 ч. 30 м.
Битрейт : 7924 Кбит/сек
Ширина : 1920 пикселей
Высота : 1080 пикселей
Соотношение сторон : 16:9
Частота кадров : 23,976 кадра/сек
Цветовое пространство : YUV
Субдискретизация насыщенности : 4:2:0
Битовая глубина : 8 бит
Тип развёртки : Прогрессивная
Бит/(Пиксели*Кадры) : 0.159
Размер потока : 4,99 Гбайт (66%)
Заголовок : Shrek 3D.2001
Библиотека кодирования : x264 core 120 r2164 da19765
Настройки программы : cabac=1 / ref=4 / deblock=1:-3:-3 / analyse=0x3:0x133 / me=umh / subme=9 / psy=1 / psy_rd=1.00:0.15 / mixed_ref=1 / me_range=16 / chroma_me=1 / trellis=2 / 8x8dct=1 / cqm=0 / deadzone=21,11 / fast_pskip=1 / chroma_qp_offset=-3 / threads=6 / sliced_threads=0 / nr=0 / decimate=1 / interlaced=0 / bluray_compat=0 / constrained_intra=0 / bframes=6 / b_pyramid=2 / b_adapt=2 / b_bias=0 / direct=3 / weightb=1 / open_gop=0 / weightp=2 / keyint=250 / keyint_min=23 / scenecut=40 / intra_refresh=0 / rc_lookahead=60 / rc=crf / mbtree=1 / crf=18.0 / qcomp=0.70 / qpmin=0 / qpmax=69 / qpstep=4 / vbv_maxrate=40000 / vbv_bufsize=40000 / crf_max=0.0 / nal_hrd=none / ip_ratio=1.40 / aq=1:0.80
Язык : English
Default : Да
Forced : Нет
Аудио #1
Идентификатор : 2
Формат : AC-3
Формат/Информация : Audio Coding 3
Расширение режима : CM (complete main)
Параметр Endianness формата : Big
Идентификатор кодека : A_AC3
Продолжительность : 1 ч. 30 м.
Вид битрейта : Постоянный
Битрейт : 640 Кбит/сек
Каналы : 6 каналов
Расположение каналов : Front: L C R, Side: L R, LFE
Частота : 48,0 КГц
Битовая глубина : 16 бит
Метод сжатия : С потерями
Размер потока : 412 Мбайт (5%)
Заголовок : дубляж
Язык : Russian
Default : Да
Forced : Да
Аудио #2
Идентификатор : 3
Формат : AC-3
Формат/Информация : Audio Coding 3
Расширение режима : CM (complete main)
Параметр Endianness формата : Big
Идентификатор кодека : A_AC3
Продолжительность : 1 ч. 30 м.
Вид битрейта : Постоянный
Битрейт : 448 Кбит/сек
Каналы : 6 каналов
Расположение каналов : Front: L C R, Side: L R, LFE
Частота : 48,0 КГц
Битовая глубина : 16 бит
Метод сжатия : С потерями
Размер потока : 289 Мбайт (4%)
Заголовок : MVO kinomania
Язык : Russian
Default : Нет
Forced : Нет
Аудио #3
Идентификатор : 4
Формат : AC-3
Формат/Информация : Audio Coding 3
Расширение режима : CM (complete main)
Параметр Endianness формата : Big
Идентификатор кодека : A_AC3
Продолжительность : 1 ч. 30 м.
Вид битрейта : Постоянный
Битрейт : 384 Кбит/сек
Каналы : 6 каналов
Расположение каналов : Front: L C R, Side: L R, LFE
Частота : 48,0 КГц
Битовая глубина : 16 бит
Метод сжатия : С потерями
Размер потока : 247 Мбайт (3%)
Заголовок : MVO superbit
Язык : Russian
Default : Нет
Forced : Нет
Аудио #4
Идентификатор : 5
Формат : AC-3
Формат/Информация : Audio Coding 3
Расширение режима : CM (complete main)
Параметр Endianness формата : Big
Идентификатор кодека : A_AC3
Продолжительность : 1 ч. 30 м.
Вид битрейта : Постоянный
Битрейт : 448 Кбит/сек
Каналы : 6 каналов
Расположение каналов : Front: L C R, Side: L R, LFE
Частота : 48,0 КГц
Битовая глубина : 16 бит
Метод сжатия : С потерями
Размер потока : 289 Мбайт (4%)
Заголовок : AVO (Гаврилов)
Язык : Russian
Default : Нет
Forced : Нет
Аудио #5
Идентификатор : 6
Формат : AC-3
Формат/Информация : Audio Coding 3
Расширение режима : CM (complete main)
Параметр Endianness формата : Big
Идентификатор кодека : A_AC3
Продолжительность : 1 ч. 30 м.
Вид битрейта : Постоянный
Битрейт : 448 Кбит/сек
Каналы : 6 каналов
Расположение каналов : Front: L C R, Side: L R, LFE
Частота : 48,0 КГц
Битовая глубина : 16 бит
Метод сжатия : С потерями
Размер потока : 289 Мбайт (4%)
Заголовок : AVO (Гоблин)
Язык : Russian
Default : Нет
Forced : Нет
Аудио #6
Идентификатор : 7
Формат : AC-3
Формат/Информация : Audio Coding 3
Расширение режима : CM (complete main)
Параметр Endianness формата : Big
Идентификатор кодека : A_AC3
Продолжительность : 1 ч. 30 м.
Вид битрейта : Постоянный
Битрейт : 448 Кбит/сек
Каналы : 6 каналов
Расположение каналов : Front: L C R, Side: L R, LFE
Частота : 48,0 КГц
Битовая глубина : 16 бит
Метод сжатия : С потерями
Размер потока : 289 Мбайт (4%)
Заголовок : AVO (Визгунов)
Язык : Russian
Default : Нет
Forced : Нет
Аудио #7
Идентификатор : 8
Формат : AC-3
Формат/Информация : Audio Coding 3
Расширение режима : CM (complete main)
Параметр Endianness формата : Big
Идентификатор кодека : A_AC3
Продолжительность : 1 ч. 30 м.
Вид битрейта : Постоянный
Битрейт : 384 Кбит/сек
Каналы : 6 каналов
Расположение каналов : Front: L C R, Side: L R, LFE
Частота : 48,0 КГц
Битовая глубина : 16 бит
Метод сжатия : С потерями
Размер потока : 247 Мбайт (3%)
Заголовок : AVO (Гланц)
Язык : Russian
Default : Нет
Forced : Нет
Аудио #8
Идентификатор : 9
Формат : AC-3
Формат/Информация : Audio Coding 3
Расширение режима : CM (complete main)
Параметр Endianness формата : Big
Идентификатор кодека : A_AC3
Продолжительность : 1 ч. 30 м.
Вид битрейта : Постоянный
Битрейт : 640 Кбит/сек
Каналы : 6 каналов
Расположение каналов : Front: L C R, Side: L R, LFE
Частота : 48,0 КГц
Битовая глубина : 16 бит
Метод сжатия : С потерями
Размер потока : 412 Мбайт (5%)
Заголовок : оригинал
Язык : English
Default : Нет
Forced : Нет
Текст #1
Идентификатор : 10
Формат : UTF-8
Идентификатор кодека : S_TEXT/UTF8
Идентификатор кодека/Информация : UTF-8 Plain Text
Заголовок : Shrek.2001
Язык : Russian
Default : Нет
Forced : Нет
Текст #2
Идентификатор : 11
Формат : UTF-8
Идентификатор кодека : S_TEXT/UTF8
Идентификатор кодека/Информация : UTF-8 Plain Text
Заголовок : Shrek full
Язык : English
Default : Нет
Forced : Нет
Меню
00:00:00.000 : en:00:00:00.000
00:04:56.755 : en:00:04:56.755
00:11:42.702 : en:00:11:42.702
00:15:58.749 : en:00:15:58.749
00:20:11.335 : en:00:20:11.335
00:26:19.411 : en:00:26:19.411
00:31:40.023 : en:00:31:40.023
00:35:13.236 : en:00:35:13.236
00:40:23.963 : en:00:40:23.963
00:45:01.115 : en:00:45:01.115
00:49:16.162 : en:00:49:16.162
00:55:27.658 : en:00:55:27.658
01:00:54.234 : en:01:00:54.234
01:05:33.304 : en:01:05:33.304
01:09:16.152 : en:01:09:16.152
01:11:32.663 : en:01:11:32.663
01:14:51.112 : en:01:14:51.112
01:17:33.774 : en:01:17:33.774
01:20:53.098 : en:01:20:53.098
01:23:01.977 : en:01:23:01.977

Скриншоты






Благодарности релизеру (18)

Торрент:

Статус:

Размер:

Зарегистрирован   [ 2012-05-12 13:41 ]

проверено

7.55 GB