Торренты   
 
 

 

Коралловый риф - Часть 2: Таинственный мир под водой / Coral Reef - Vol.2: Mysterious Worlds Under Water [2011 г.,BDrip, 1080p, Anamorph OverUnder]

Рейтинг 3D:
1 голосов
9.0
Рейтинг фильма:
2 голосов
9.5
 
Вы должны быть авторизированы,
чтобы ставить оценки


Коралловый риф - Часть 2: Таинственный мир под водой 3D
Coral Reef - Vol.2: Mysterious Worlds Under Water 3D

Год выпуска: 2011
Страна: Германия
Жанр: документальный
Продолжительность: 00:52:36
Перевод: Отсутствует
Над фильмом работали:
Бенжамин Краузе и др.
Описание:
Мальдивы жемчужина Индийского океана, но их настоящие сокровища находятся под водой. Под поверхностью воды около островов за тысячелетия выросли коралловые рифы, в которых приютились множество обитателей. Вы увидите захватывающие мир "леса" кораллов, дающие пищу и кров множеству обитателей океана. Вам предоставляется возможность полюбоваться настоящим чудом природы! Самые современные 3D-технологии показывают вам подводный мир в вашей комнате отдыха.Релиз группы:

Проверено на встроенном плеере ТВ LG 42LW4500

За исходник спасибо
Качество: BDrip
Контейнер: MKV
Формат 3D: Anamorph OverUnder / Вертикальная анаморфная стереопара
Видео: AVC, 1920x1080, 23.976 кадр/сек, 16,6 Мбит/сек
Аудио 1: английский; AC3, 6 каналов, 640 Кбит/сек, 48,0 КГц
Аудио 2: немецкий; AC3, 6 каналов, 640 Кбит/сек, 48,0 КГц (отдельно на Narod.Ru)

СКРИНШОТЫ

MI

Код:
Общее
Уникальный идентификатор                 : 222917233053180409059990537586836034893 (0xA7B44C241753CC63BBEE0DCFA5B4D54D)
Полное имя                               : D:\3D-RuGroup\Документальные\CoralReef.Vol.2.MysteriousWorldOfUnderWater.3D.2011.BD3DRip.Half.OU.x264.AC3.Eng.3D-RuGroup.mkv
Формат                                   : Matroska
Версия формата                           : Version 2
Размер файла                             : 6,48 Гбайт
Продолжительность                        : 52 м.
Общий поток                              : 17,6 Мбит/сек
Название фильма                          : Coral reef - Volume 2: Mysterious world of underwater rip 3D-RuGroup by elephant aka itsamna
Дата кодирования                         : UTC 2012-05-15 10:16:43
Программа кодирования                    : mkvmerge v3.4.0 ('Rapunzel') сборка от May 15 2010 09:38:20
Библиотека кодирования                   : libebml v0.8.0 + libmatroska v0.9.0
Видео
Идентификатор                            : 1
Формат                                   : AVC
Формат/Информация                        : Advanced Video Codec
Профиль формата                          : High@L4.1
Параметр CABAC формата                   : Да
Параметр ReFrames формата                : 4 кадра
Идентификатор кодека                     : V_MPEG4/ISO/AVC
Продолжительность                        : 52 м.
Битрейт                                  : 16,6 Мбит/сек
Ширина                                   : 1920 пикселей
Высота                                   : 1080 пикселей
Соотношение сторон                       : 16:9
Частота кадров                           : 23,976 кадра/сек
Цветовое пространство                    : YUV
Субдискретизация насыщенности            : 4:2:0
Битовая глубина                          : 8 бит
Тип развёртки                            : Прогрессивная
Бит/(Пиксели*Кадры)                      : 0.335
Размер потока                            : 6,11 Гбайт (94%)
Заголовок                                : Coral reef - Volume 2: Mysterious world of underwater rip 3D-RuGroup by elephant aka itsamna
Библиотека кодирования                   : x264 core 116 r2074 2641b9e
Настройки программы                      : cabac=1 / ref=4 / deblock=1:-3:-3 / analyse=0x3:0x133 / me=umh / subme=9 / psy=1 / psy_rd=1.00:0.15 / mixed_ref=1 / me_range=32 / chroma_me=1 / trellis=2 / 8x8dct=1 / cqm=0 / deadzone=21,11 / fast_pskip=0 / chroma_qp_offset=-3 / threads=3 / sliced_threads=0 / nr=0 / decimate=1 / interlaced=0 / bluray_compat=0 / constrained_intra=0 / bframes=7 / b_pyramid=2 / b_adapt=2 / b_bias=0 / direct=3 / weightb=1 / open_gop=0 / weightp=2 / keyint=250 / keyint_min=23 / scenecut=40 / intra_refresh=0 / rc_lookahead=60 / rc=crf / mbtree=1 / crf=18.0 / qcomp=0.70 / qpmin=0 / qpmax=69 / qpstep=4 / vbv_maxrate=50000 / vbv_bufsize=50000 / crf_max=0.0 / nal_hrd=none / ip_ratio=1.40 / aq=1:0.70
Язык                                     : German
Default                                  : Да
Forced                                   : Нет
Аудио
Идентификатор                            : 2
Формат                                   : AC-3
Формат/Информация                        : Audio Coding 3
Расширение режима                        : CM (complete main)
Идентификатор кодека                     : A_AC3
Продолжительность                        : 52 м.
Вид битрейта                             : Постоянный
Битрейт                                  : 640 Кбит/сек
Каналы                                   : 6 каналов
Расположение каналов                     : Front: L C R, Side: L R, LFE
Частота                                  : 48,0 КГц
Битовая глубина                          : 16 бит
Метод сжатия                             : С потерями
Размер потока                            : 241 Мбайт (4%)
Язык                                     : English
Default                                  : Да
Forced                                   : Нет
Меню
00:00:00.000                             : :01
00:10:31.214                             : :02
00:19:44.975                             : :03
00:38:54.582                             : :04
00:52:09.877                             : :05
Благодарности релизеру (0)

Торрент:

Статус:

Размер:

Зарегистрирован   [ 2012-05-15 16:05 ]

проверено

6.48 GB