Торренты   
 
 

 

Союз зверей 3D / Die Konferenz der Tiere / Animals United 3D (Райнхард Клоосс, Хольгер Таппе) [2010 г., Anamorph OverUnder]

Рейтинг 3D:
26 голосов
8.6
Рейтинг фильма:
27 голосов
8.5
 
Вы должны быть авторизированы,
чтобы ставить оценки


Союз зверей 3D / Die Konferenz der Tiere / Animals United 3D
Год выпуска: 2010
Страна: Германия
Жанр: мультфильм, комедия, приключения, семейный
Продолжительность: 01:33:07
Перевод: Профессиональный (дублированный) лицензия
Русские субтитры: есть
Режиссер на русском: Райнхард Клоосс, Хольгер Таппе
Режиссер на английском: Reinhard Klooss, Holger Tappe
Роли озвучивали :
Ральф Шмитц, Томас Фритш, Кристоф Мария Хербст, Бастиан Пастевка, Оливер Калкофе, Billy Beach, Джим Броудбент, Джеймс Корден, Marc Diraison, Омид Джалили
Роли дублировали:
Вадим Галыгин, Илья Любимов, Тимур Родригез, Иван Жарков, Любовь Германова
Описание: Команда веселых зверей нашла зеленый оазис посреди засушливой африканской пустыни, чтобы там поселиться. Но их жизнь оказалась под угрозой - река Окаванго стала быстро пересыхать. Друзья выясняют, что в этом виноваты люди, которые построили дамбу. Звери, - такие разные, - от льва до трусливого суслика, - объединяются в союз, чтобы бросить вызов людям и спасти долину! Смешная ватага разношерстных, винторогих и парнокопытных устроит развеселую жизнь людям и наведет свой «порядок» на дамбе!--

--Качество: BDrip
Контейнер: MKV
Формат 3D: Anamorph OverUnder/Вертикальная анаморфная стереопара
Порядок ракурсов: левый ракурс первый
Видео кодек: x264
Аудио кодек: AC3
Видео: AVC / 1920х1080p / 23.976 fps / 5916 kbps
Аудио 1: Русский / AC3 / 48.0 KHz / 5.1 ch / 640 Kbps
Аудио 2: Украинский / AC3 / 48.0 KHz / 5.1 ch / 448 Kbps
Аудио 3:Немецкий / AC3 / 48.0 KHz / 5.1 ch / 448 Kbps
Субтитры:вшитые srt Rus [полные],Ukrainian [полные],German (full)

MediaInfo


Общее
Уникальный идентификатор : 171543540053515082769435503014565966898 (0x810E1584A9B571AABC23B5663F74F432)
Полное имя : E:\кино\Soyuz.zverey.2010(3D) Ac3-Rus.Ukr.Eng.1080p.BDRip.x264 (m@rik05).mkv
Формат : Matroska
Версия формата : Version 2
Размер файла : 4,95 Гбайт
Продолжительность : 1 ч. 33 м.
Общий поток : 7603 Кбит/сек
Название фильма : Soyuz.zverey.2010(3D) Rip by of m@rik05
Дата кодирования : UTC 2012-05-21 17:29:11
Программа кодирования : mkvmerge v3.4.0 ('Rapunzel') сборка от May 15 2010 09:38:20
Библиотека кодирования : libebml v0.8.0 + libmatroska v0.9.0
Видео
Идентификатор : 1
Формат : AVC
Формат/Информация : Advanced Video Codec
Профиль формата : High@L4.1
Параметр CABAC формата : Да
Параметр ReFrames формата : 4 кадра
Идентификатор кодека : V_MPEG4/ISO/AVC
Продолжительность : 1 ч. 33 м.
Битрейт : 5916 Кбит/сек
Ширина : 1920 пикселей
Высота : 1080 пикселей
Соотношение сторон : 16:9
Частота кадров : 23,976 кадра/сек
Цветовое пространство : YUV
Субдискретизация насыщенности : 4:2:0
Битовая глубина : 8 бит
Тип развёртки : Прогрессивная
Бит/(Пиксели*Кадры) : 0.119
Размер потока : 3,85 Гбайт (78%)
Библиотека кодирования : x264 core 120 r2164 da19765
Настройки программы : cabac=1 / ref=4 / deblock=1:-3:-3 / analyse=0x3:0x133 / me=umh / subme=9 / psy=1 / psy_rd=1.00:0.15 / mixed_ref=1 / me_range=16 / chroma_me=1 / trellis=2 / 8x8dct=1 / cqm=0 / deadzone=21,11 / fast_pskip=1 / chroma_qp_offset=-3 / threads=6 / sliced_threads=0 / nr=0 / decimate=1 / interlaced=0 / bluray_compat=0 / constrained_intra=0 / bframes=6 / b_pyramid=2 / b_adapt=2 / b_bias=0 / direct=3 / weightb=1 / open_gop=0 / weightp=2 / keyint=250 / keyint_min=23 / scenecut=40 / intra_refresh=0 / rc_lookahead=60 / rc=crf / mbtree=1 / crf=18.0 / qcomp=0.70 / qpmin=0 / qpmax=69 / qpstep=4 / vbv_maxrate=40000 / vbv_bufsize=40000 / crf_max=0.0 / nal_hrd=none / ip_ratio=1.40 / aq=1:0.80
Язык : German
Default : Да
Forced : Нет
Аудио #1
Идентификатор : 2
Формат : AC-3
Формат/Информация : Audio Coding 3
Расширение режима : CM (complete main)
Параметр Endianness формата : Big
Идентификатор кодека : A_AC3
Продолжительность : 1 ч. 33 м.
Вид битрейта : Постоянный
Битрейт : 640 Кбит/сек
Каналы : 6 каналов
Расположение каналов : Front: L C R, Side: L R, LFE
Частота : 48,0 КГц
Битовая глубина : 16 бит
Метод сжатия : С потерями
Размер потока : 426 Мбайт (8%)
Заголовок : Dub
Язык : Russian
Default : Да
Forced : Да
Аудио #2
Идентификатор : 3
Формат : AC-3
Формат/Информация : Audio Coding 3
Расширение режима : CM (complete main)
Параметр Endianness формата : Big
Идентификатор кодека : A_AC3
Продолжительность : 1 ч. 33 м.
Вид битрейта : Постоянный
Битрейт : 448 Кбит/сек
Каналы : 6 каналов
Расположение каналов : Front: L C R, Side: L R, LFE
Частота : 48,0 КГц
Битовая глубина : 16 бит
Метод сжатия : С потерями
Размер потока : 298 Мбайт (6%)
Заголовок : Dub
Язык : Ukrainian
Default : Нет
Forced : Нет
Аудио #3
Идентификатор : 4
Формат : AC-3
Формат/Информация : Audio Coding 3
Расширение режима : CM (complete main)
Параметр Endianness формата : Big
Идентификатор кодека : A_AC3
Продолжительность : 1 ч. 33 м.
Вид битрейта : Постоянный
Битрейт : 448 Кбит/сек
Каналы : 6 каналов
Расположение каналов : Front: L C R, Side: L R, LFE
Частота : 48,0 КГц
Битовая глубина : 16 бит
Метод сжатия : С потерями
Размер потока : 298 Мбайт (6%)
Заголовок : Original
Язык : German
Default : Нет
Forced : Нет
Текст #1
Идентификатор : 5
Формат : UTF-8
Идентификатор кодека : S_TEXT/UTF8
Идентификатор кодека/Информация : UTF-8 Plain Text
Заголовок : полные
Язык : Russian
Default : Нет
Forced : Нет
Текст #2
Идентификатор : 6
Формат : UTF-8
Идентификатор кодека : S_TEXT/UTF8
Идентификатор кодека/Информация : UTF-8 Plain Text
Заголовок : full
Язык : English
Default : Нет
Forced : Нет
Текст #3
Идентификатор : 7
Формат : UTF-8
Идентификатор кодека : S_TEXT/UTF8
Идентификатор кодека/Информация : UTF-8 Plain Text
Заголовок : full
Язык : German
Default : Нет
Forced : Нет
Меню
00:00:00.000 : en:00:00:00.000
00:07:14.809 : en:00:07:14.809
00:15:03.069 : en:00:15:03.069
00:23:28.866 : en:00:23:28.866
00:32:09.177 : en:00:32:09.177
00:43:05.166 : en:00:43:05.166
00:49:48.068 : en:00:49:48.068
00:57:39.998 : en:00:57:39.998
01:06:19.976 : en:01:06:19.976
01:12:55.705 : en:01:12:55.705
01:18:23.949 : en:01:18:23.949
01:26:58.130 : en:01:26:58.130

Скриншоты

Остальные раздачи этого фильма (5)
Благодарности релизеру (4)

Торрент:

Статус:

Размер:

Зарегистрирован   [ 2012-05-21 22:51 ]

проверено

4.95 GB

 
 Мнение о фильме (4)





Мульт хороший! Детям очень понравился. Сначала показал им в обычном режиме, а потом в 3D-восторг был неопесуемым!!!
 

Мне мульт показался полной чушью, качество отличное а физика движения и прорисовка в некоторых сценах средняя, по моему мнению.
 

У меня задний план раздваивается, регулровка не помогла. Мульт пришлось удалить. Жаль :(
 

Мультик сам по себе, на мой взгляд, заслуживает средней оценки, как по сюжету, так и по 3Д.