Торренты   
 
 


Путешествие 2: Таинственный остров 3Д / Journey 2: The Mysterious Island 3D (Брэд Пейтон / Brad Peyton) [2012, 1080p, BDRip, Anamorph OverUnder]

Рейтинг 3D:
Пока никто не голосовал
Рейтинг фильма:
Пока никто не голосовал
 
Вы должны быть авторизированы,
чтобы ставить оценки


Путешествие 2: Таинственный остров 3Д / Journey 2: The Mysterious Island 3D
Год выпуска: 2012
Страна: США
Студия: Warner Bros.
Жанр: фантастика, фэнтези, боевик, комедия, приключения
Продолжительность: 01:34:10
Перевод: профессиональный (дублированный)
Русские субтитры: нет
Режиссер: Брэд Пейтон / Brad Peyton
В ролях: Дуэйн Джонсон, Майкл Кейн, Джош Хатчерсон, Ванесса Энн Хадженс, Луис Гузман, Кристин Дэвис, Анна Колвелл, Стивен Кодилл, Брэнском Ричмонд, Уолтер Бэнксон
Описание:
На этот раз Шон Андерсон получает закодированный сигнал с просьбой о помощи, причем с загадочного острова, из места, где никакого острова и быть не может. Там обитают странные формы жизни, скрываются горы золота, смертоносные вулканы и не одна ошеломляющая тайна. Отчиму Шона, не сумевшему остановить его, ничего не остается, как тоже присоединиться к поискам. Вместе с пилотом вертолета и его прекрасной и решительной дочерью им предстоит найти остров, спасти его одинокого обитателя и немедленно покинуть это место, прежде чем землетрясение скроет остров под водой и похоронит навеки его сокровища ...--Проверено на встроенном плейере ТВ Samsung UE-D7000 --Качество: BDrip
Контейнер: MKV
Формат 3D: Half OverUnder / Вертикальная анаморфная стереопара
Порядок ракурсов: левый ракурс первый
Видео кодек: x264
Видео: AVC / 1920x1080p / 23.98fps / 13800 kbps
Аудио 1: Русский / AC3 / 48000Hz / 5.1 ch / 448 Kbps
Аудио 2: Английский / AC3 / 48000Hz / 5.1 ch / 640 Kbps
Субтитры: Отсутствуют

MediaInfo

General
Complete name : Journey.2.The.Mysterious.Island.2012.3D.H-OU.RusDub.ENG.AC3.1080p.Bluray.x264.z-man.mkv
Format : Matroska
File size : 10.0 GiB
Duration : 1h 34mn
Overall bit rate : 15.2 Mbps
Encoded date : UTC 2012-05-21 19:36:38
Writing application : mkvmerge v3.4.0 ('Rapunzel') сборка от May 15 2010 09:38:20
Writing library : libebml v0.8.0 + libmatroska v0.9.0
Video
ID : 1
Format : AVC
Format/Info : Advanced Video Codec
Format profile : High@L4.1
Format settings, CABAC : Yes
Format settings, ReFrames : 4 frames
Format settings, GOP : M=4, N=32
Codec ID : V_MPEG4/ISO/AVC
Duration : 1h 34mn
Bit rate : 13.8 Mbps
Width : 1 920 pixels
Height : 1 080 pixels
Display aspect ratio : 16:9
Frame rate : 23.976 fps
Color space : YUV
Chroma subsampling : 4:2:0
Bit depth : 8 bits
Scan type : Progressive
Bits/(Pixel*Frame) : 0.278
Stream size : 9.11 GiB (91%)
Title : Journey.2.The.Mysterious.Island.2012.3D.H-OU.DL.GER.AC3MD.1080p.Bluray.x264.z-man
Writing library : x264 core 124 r2197 69a0443
Encoding settings : cabac=1 / ref=4 / deblock=1:-3:-3 / analyse=0x3:0x113 / me=umh / subme=9 / psy=1 / psy_rd=1.00:0.15 / mixed_ref=1 / me_range=16 / chroma_me=1 / trellis=1 / 8x8dct=1 / cqm=0 / deadzone=21,11 / fast_pskip=1 / chroma_qp_offset=-3 / threads=12 / sliced_threads=0 / nr=0 / decimate=1 / interlaced=0 / bluray_compat=0 / constrained_intra=0 / bframes=3 / b_pyramid=2 / b_adapt=1 / b_bias=0 / direct=3 / weightb=1 / open_gop=0 / weightp=2 / keyint=250 / keyint_min=23 / scenecut=40 / intra_refresh=0 / rc_lookahead=40 / rc=crf / mbtree=1 / crf=20.0 / qcomp=0.60 / qpmin=10 / qpmax=69 / qpstep=4 / ip_ratio=1.40 / aq=1:1.00
Audio #1
ID : 2
Format : AC-3
Format/Info : Audio Coding 3
Mode extension : CM (complete main)
Codec ID : A_AC3
Duration : 1h 34mn
Bit rate mode : Constant
Bit rate : 448 Kbps
Channel(s) : 6 channels
Channel positions : Front: L C R, Side: L R, LFE
Sampling rate : 48.0 KHz
Bit depth : 16 bits
Stream size : 302 MiB (3%)
Title : Дубляж
Language : Russian
Audio #2
ID : 3
Format : AC-3
Format/Info : Audio Coding 3
Mode extension : CM (complete main)
Codec ID : A_AC3
Duration : 1h 34mn
Bit rate mode : Constant
Bit rate : 640 Kbps
Channel(s) : 6 channels
Channel positions : Front: L C R, Side: L R, LFE
Sampling rate : 48.0 KHz
Bit depth : 16 bits
Stream size : 431 MiB (4%)
Title : Original
Language : English
Menu
00:00:00.000 : en:00:00:00.000
00:10:52.402 : en:00:10:52.402
00:19:13.277 : en:00:19:13.277
00:30:06.805 : en:00:30:06.805
00:39:21.442 : en:00:39:21.442
00:49:58.662 : en:00:49:58.662
00:59:03.457 : en:00:59:03.457
01:09:11.773 : en:01:09:11.773
01:19:27.096 : en:01:19:27.096
01:26:03.492 : en:01:26:03.492

Скриншоты



.nfo

--------------------------------------------------------------------------------------------------
RELEASE INFO
--------------------------------------------------------------------------------------------------
RELEASE NAME
Journey.2.The.Mysterious.Island.2012.3D.H-OU.DL.GER.AC3MD.1080p.Bluray.x264.z-man
--------------------------------------------------------------------------------------------------
General Information
--------------------------------------------------------------------------------------------------
Original Title.......: Journey 2: The Mysterious Island
Type.................: 3D Blu-ray Half Over Under Encode
Audio................: German 2.0 AC3 MIC ! (THX @ WTR) , English 5.1 DTS
Subtitles............: No
Genre................: Action, Adventure, Comedy
IMDb Link............: http://www.imdb.com/title/tt1397514/
Format...............: MKV
MKV Size.............: 10.4 GiB
Video Bitrate........: 13.8 Mbps
Length...............: 1h 34mn
Codec................: X264
Resolution...........: 1080P
FPS..................: 23.976
Original Format......: 3D Bluray
Compression Format...: RAR
Notes................: Real Stereoscopic 3D :-)
--------------------------------------------------------------------------------------------------
Media Info
--------------------------------------------------------------------------------------------------
Format : Matroska
Format version : Version 3 / Version 2
File size : 10.4 GiB
Duration : 1h 34mn
Overall bit rate : 15.9 Mbps
Encoded date : UTC 2012-05-20 03:46:22
Writing application : mkvmerge v5.5.0 ('Healer')
Writing library : libebml v1.2.3 + libmatroska v1.3.0
Video
ID : 1
Format : AVC
Format/Info : Advanced Video Codec
Format profile : High@L4.1
MultiView_Count : 2
MultiView_Layout : Top-Bottom (left eye first)
Format settings, CABAC : Yes
Format settings, ReFrames : 4 frames
Codec ID : V_MPEG4/ISO/AVC
Duration : 1h 34mn
Bit rate : 13.8 Mbps
Width : 1 920 pixels
Height : 1 080 pixels
Display aspect ratio : 16:9
Frame rate : 23.976 fps
Color space : YUV
Chroma subsampling : 4:2:0
Bit depth : 8 bits
Scan type : Progressive
Bits/(Pixel*Frame) : 0.278
Stream size : 9.10 GiB (87%)
Title : Journey.2.The.Mysterious.Island.2012.3D.H-OU.DL.GER.AC3MD.1080p.Bluray.x264.z-man
Writing library : x264 core 124 r2197 69a0443
Encoding settings : cabac=1 / ref=4 / deblock=1:-3:-3 / analyse=0x3:0x113 /
me=umh / subme=9 / psy=1 / psy_rd=1.00:0.15 / mixed_ref=1 / me_range=16 / chroma_me=1 / trellis=1 /
8x8dct=1 / cqm=0 / deadzone=21,11 / fast_pskip=1 / chroma_qp_offset=-3 / threads=12 / sliced_threads=0 /
nr=0 / decimate=1 / interlaced=0 / bluray_compat=0 / constrained_intra=0 / bframes=3 / b_pyramid=2 /
b_adapt=1 / b_bias=0 / direct=3 / weightb=1 / open_gop=0 / weightp=2 / keyint=250 / keyint_min=23 /
scenecut=40 / intra_refresh=0 / rc_lookahead=40 / rc=crf / mbtree=1 / crf=20.0 / qcomp=0.60 / qpmin=10 /
qpmax=69 / qpstep=4 / ip_ratio=1.40 / aq=1:1.00
Default : Yes
Forced : No
Audio #1
ID : 2
Format : AC-3
Format/Info : Audio Coding 3
Mode extension : CM (complete main)
Codec ID : A_AC3
Duration : 1h 34mn
Bit rate mode : Constant
Bit rate : 224 Kbps
Channel(s) : 2 channels
Channel positions : Front: L R
Sampling rate : 48.0 KHz
Bit depth : 16 bits
Compression mode : Lossy
Stream size : 151 MiB (1%)
Language : German
Default : Yes
Forced : No
Audio #2
ID : 3
Format : DTS
Format/Info : Digital Theater Systems
Codec ID : A_DTS
Duration : 1h 34mn
Bit rate mode : Constant
Bit rate : 1 510 Kbps
Channel(s) : 6 channels
Channel positions : Front: L C R, Side: L R, LFE
Sampling rate : 48.0 KHz
Bit depth : 24 bits
Compression mode : Lossy
Stream size : 1 017 MiB (10%)
Language : English
Default : No
Forced : No
Menu
00:00:00.000 : en:00:00:00.000
00:10:52.402 : en:00:10:52.402
00:19:13.277 : en:00:19:13.277
00:30:06.805 : en:00:30:06.805
00:39:21.442 : en:00:39:21.442
00:49:58.662 : en:00:49:58.662
00:59:03.457 : en:00:59:03.457
01:09:11.773 : en:01:09:11.773
01:19:27.096 : en:01:19:27.096
01:26:03.492 : en:01:26:03.492
--------------------------------------------------------------------------------------------------
Спасибо за рип z-man и The3DTeam
Благодарности релизеру (0)

Торрент:

Статус:

Размер:

Зарегистрирован   [ 2012-05-22 01:24 ]

x закрыто

10.02 GB

 
Комментарии:

Пред.  1, 2, 3, 4






Да ну хватит чтоль!!!Да какой вирус?!!!Один "хохмачь" запустил корку и вы повелись! На этом форуме нет зараженных фильмов и быть не может!!!Хотя бы по тому что это своеобразный клуб по интересам.Это сайт любителей 3д!Это сообщество собиралось не один день и вовсе не для того чтобы гадить друг-другу!!!:) тем более посмотрите кто автор рипа.
 

Топик был перенесен из форума Фильмы в форум Архив

Zagruzin
 

Страница 4 из 4

Пред.  1, 2, 3, 4