Торренты   
 
 

 

Джон Картер / John Carter [2012, BDrip, half1080p, Anamorph OverUnder]

Рейтинг 3D:
108 голосов
7.3
Рейтинг фильма:
108 голосов
8.3
 
Вы должны быть авторизированы,
чтобы ставить оценки



Джoн Кaртер / Jоhn Cаrter
Год выпуска: 2012
Страна: США (Walt Disney Pictures)
Жанр: Фантастика, Фэнтези, Боевик, Приключения
Продолжительность: 02:12:01
Перевод: Профессиональный (дублированный) Русский ("лицензия") и Украинский (лицензия)
Режиссер: Эндрю Стэнтон / Andrew Stanton
В ролях: Тейлор Китч, Линн Коллинз, Саманта Мортон, Уиллем Дефо, Томас Хейден Чёрч, Марк Стронг, Кирен Хайдз, Доминик Уэст, Джеймс Пьюрфой, Брайан Крэнстон, Полли Уокер, Дэрил Сабара...
Роли дублировали: Олег Фёдоров, Марианна Коробейникова, Лилиан Наврозашвили, Юрий Лазарев, Андрей Пирог, Александр Аравушкин, Аркадий Волгин, Александр Ноткин, Сергей Дьячков, Анатолий Дубанов, Руслан Мещанов
Описание: Ветеран Гражданской войны в США Джон Картер против своей воли оказывается на Марсе, где попадает в плен к воинственным четырехметровым туземцам. Картеру предстоит не только спастись самому, но и спасти принцессу Дею Торис из Гелиума.--
Премьера: 22 февраля 2012
Бюджет: $250 000 000
Кассовые сборы: $282 126 762

Проверено на встроенном плейере
ТВ Samsung UE-C7000

--Формат 3d: Anamorph OverUnder
Качество: BDrip
Контейнер: MKV-Видео: AVC / 23,976 fps / 1920х1080p / 9731 Kbps
Аудио
#1: Русский / AC3 / 48 KHz / 5.1 ch / 640 Kbps (Дубляж)
#2: Украинский / AC3 / 48 KHz / 5.1 ch / 640 Kbps (Дубляж)
#3: Английский / AC3 / 48 KHz / 5.1 ch / 640 Kbps

Субтитры SRT
Внешние:
#1 - Русские Форсированные (включены по умолчанию)
#2 - Украинские Форсированные (БД)
Вшитые softsub:
#1 - Русские Форсированные (включены по умолчанию)
#2 - Русские Полные (БД)
#2 - Украинские Форсированные (БД)
#2 - Украинские Полные (БД)
#3 - English Forced
#4 - English Full
#5 - English SDH (color)

MediaInfo

General
UniqueID : 207785004997056847646379127493671185193 (0x9C51EFB2221F664D99B7A9E81A92EB29)
Complete name : F:\Downloads\JohnCarter(3D)2012.halfOU(Ash61)\JohnCarter(3D)2012.halfOU(Ash61).mkv
Format : Matroska
File size : 11.0 GiB
Duration : 2h 12mn
Overall bit rate : 11.9 Mbps
Movie name : John Carter (3D) 2012 (Ash61)
Encoded date : UTC 2012-05-28 21:39:12
Writing application : mkvmerge v3.4.0 ('Rapunzel') сборка от May 15 2010 09:38:20
Writing library : libebml v0.8.0 + libmatroska v0.9.0
Video
ID : 1
Format : AVC
Format/Info : Advanced Video Codec
Format profile : High@L4.1
Format settings, CABAC : Yes
Format settings, ReFrames : 4 frames
Format settings, GOP : M=1, N=16
Codec ID : V_MPEG4/ISO/AVC
Duration : 2h 12mn
Bit rate : 9 731 Kbps
Width : 1 920 pixels
Height : 1 080 pixels
Display aspect ratio : 16:9
Frame rate : 23.976 fps
Color space : YUV
Chroma subsampling : 4:2:0
Bit depth : 8 bits
Scan type : Progressive
Bits/(Pixel*Frame) : 0.196
Stream size : 8.97 GiB (82%)
Title : BDrip by Ash61
Writing library : x264 core 119 r2106 07efeb4
Encoding settings : cabac=1 / ref=4 / deblock=1:-3:-3 / analyse=0x3:0x113 / me=umh / subme=9 / psy=1 / psy_rd=1.00:0.15 / mixed_ref=1 / me_range=16 / chroma_me=1 / trellis=2 / 8x8dct=1 / cqm=0 / deadzone=21,11 / fast_pskip=1 / chroma_qp_offset=-3 / threads=3 / sliced_threads=0 / nr=0 / decimate=1 / interlaced=0 / bluray_compat=0 / constrained_intra=0 / bframes=6 / b_pyramid=2 / b_adapt=2 / b_bias=0 / direct=3 / weightb=1 / open_gop=0 / weightp=2 / keyint=250 / keyint_min=23 / scenecut=40 / intra_refresh=0 / rc_lookahead=60 / rc=crf / mbtree=1 / crf=18.0 / qcomp=0.70 / qpmin=0 / qpmax=69 / qpstep=4 / vbv_maxrate=40000 / vbv_bufsize=40000 / crf_max=0.0 / nal_hrd=none / frame-packing=4 / ip_ratio=1.40 / aq=1:0.70
Audio #1
ID : 2
Format : AC-3
Format/Info : Audio Coding 3
Mode extension : CM (complete main)
Codec ID : A_AC3
Duration : 2h 12mn
Bit rate mode : Constant
Bit rate : 640 Kbps
Channel(s) : 6 channels
Channel positions : Front: L C R, Side: L R, LFE
Sampling rate : 48.0 KHz
Bit depth : 16 bits
Compression mode : Lossy
Stream size : 604 MiB (5%)
Title : Дубляж - Лицензия
Language : Russian
Audio #2
ID : 3
Format : AC-3
Format/Info : Audio Coding 3
Mode extension : CM (complete main)
Codec ID : A_AC3
Duration : 2h 12mn
Bit rate mode : Constant
Bit rate : 640 Kbps
Channel(s) : 6 channels
Channel positions : Front: L C R, Side: L R, LFE
Sampling rate : 48.0 KHz
Bit depth : 16 bits
Compression mode : Lossy
Stream size : 604 MiB (5%)
Title : Дубляж - Лицензия
Language : Ukrainian
Audio #3
ID : 4
Format : AC-3
Format/Info : Audio Coding 3
Mode extension : CM (complete main)
Codec ID : A_AC3
Duration : 2h 12mn
Bit rate mode : Constant
Bit rate : 640 Kbps
Channel(s) : 6 channels
Channel positions : Front: L C R, Side: L R, LFE
Sampling rate : 48.0 KHz
Bit depth : 16 bits
Compression mode : Lossy
Stream size : 604 MiB (5%)
Title : Original
Language : English
Text #1
ID : 5
Format : UTF-8
Codec ID : S_TEXT/UTF8
Codec ID/Info : UTF-8 Plain Text
Title : Форсированные
Language : Russian
Text #2
ID : 6
Format : UTF-8
Codec ID : S_TEXT/UTF8
Codec ID/Info : UTF-8 Plain Text
Title : Полные (BD)
Language : Russian
Text #3
ID : 7
Format : UTF-8
Codec ID : S_TEXT/UTF8
Codec ID/Info : UTF-8 Plain Text
Title : Форсированные (BD)
Language : Ukrainian
Text #4
ID : 8
Format : UTF-8
Codec ID : S_TEXT/UTF8
Codec ID/Info : UTF-8 Plain Text
Title : Полные (BD)
Language : Ukrainian
Text #5
ID : 9
Format : UTF-8
Codec ID : S_TEXT/UTF8
Codec ID/Info : UTF-8 Plain Text
Title : Forced
Language : English
Text #6
ID : 10
Format : UTF-8
Codec ID : S_TEXT/UTF8
Codec ID/Info : UTF-8 Plain Text
Title : Full
Language : English
Text #7
ID : 11
Format : UTF-8
Codec ID : S_TEXT/UTF8
Codec ID/Info : UTF-8 Plain Text
Title : SDH (color)
Language : English
Menu
00:00:00.000 : :Вступительные титры
00:04:01.241 : :Последняя воля
00:10:22.914 : :Золотая пещера
00:20:08.791 : :Новый мир
00:27:05.207 : :Барсум
00:37:29.164 : :Голос Барсума
00:47:43.569 : :Дотар Соджат
00:58:51.653 : :Девятый луч
01:07:42.433 : :Исса
01:15:01.038 : :Два объединённых города
01:22:34.199 : :Ключ от Джасума
01:30:29.799 : :Разрушение Мира
01:37:02.066 : :Арена
01:46:52.031 : :Перелом
01:53:48.989 : :Пустая могила
02:02:54.534 : :Финальные титры

Cover & Label


Остальные раздачи этого фильма (5)
Благодарности релизеру (64)

Торрент:

Статус:

Размер:

Зарегистрирован   [ 2012-05-30 12:05 ]

проверено

10.96 GB