Торренты   
 
 


Джoн Кaртер в 3Д / Jоhn Cаrter 3D (Эндрю Стэнтон / Andrew Stanton) [2012 г., Anaglyph, red'cyan]

Рейтинг 3D:
1 голосов
6.0
Рейтинг фильма:
1 голосов
7.0
 
Вы должны быть авторизированы,
чтобы ставить оценки


Джoн Кaртер в 3Д / Jоhn Cаrter 3D
Год выпуска: 2012
Страна: США
Жанр: Фантастика, Фэнтези, Боевик, Приключения
Продолжительность: 02:11:59
Перевод: Профессиональный (дублированный) Русский ("чистый звук")
Украинский (line)
Режиссер: Эндрю Стэнтон / Andrew Stanton
В ролях: Тейлор Китч, Линн Коллинз, Саманта Мортон, Уиллем Дефо, Томас Хейден Чёрч, Марк Стронг, Кирен Хайдз, Доминик Уэст, Джеймс Пьюрфой, Брайан Крэнстон, Полли Уокер, Дэрил Сабара...
Роли дублировали: Олег Фёдоров, Марианна Коробейникова, Лилиан Наврозашвили, Юрий Лазарев, Андрей Пирог, Александр Аравушкин, Аркадий Волгин, Александр Ноткин, Сергей Дьячков, Анатолий Дубанов, Руслан Мещанов
Описание: Ветеран Гражданской войны в США Джон Картер против своей воли оказывается на Марсе, где попадает в плен к воинственным четырехметровым туземцам. Картеру предстоит не только спастись самому, но и спасти принцессу Дею Торис из Гелиума.
Формат 3d: Anaglyph
Цвета очков:

Видео: AVC / 23,976 fps / 1280х720p / 5500 Kbps
Аудио1: Русский / AC3 / 48 KHz / 5.1 ch / 384 Kbps (Дубляж - "чистый звук")
Аудио2: Украинский / AC3 / 48 KHz / 2 ch / 128 Kbps (Line)
Аудио3: Английский / AC3 / 48 KHz / 5.1 ch / 640 Kbps

MediaInfo

General
Unique ID : 194184947750134545939786115004062136952 (0x9216A91A9975F789846CF85106267A78)
Complete name : D:\ВИДЕО\JohnCarter(3D).mkv
Format : Matroska
Format version : Version 2
File size : 6.13 GiB
Duration : 2h 12mn
Overall bit rate : 6 647 Kbps
Encoded date : UTC 2012-05-22 19:12:50
Writing application : mkvmerge v5.4.0 ('Piper') built on Mar 10 2012 13:34:39
Writing library : libebml v1.2.3 + libmatroska v1.3.0
Video
ID : 1
Format : AVC
Format/Info : Advanced Video Codec
Format profile : High@L4.1
Format settings, CABAC : Yes
Format settings, ReFrames : 4 frames
Codec ID : V_MPEG4/ISO/AVC
Duration : 2h 12mn
Bit rate : 5 500 Kbps
Width : 1 280 pixels
Height : 720 pixels
Display aspect ratio : 16:9
Frame rate : 23.976 fps
Color space : YUV
Chroma subsampling : 4:2:0
Bit depth : 8 bits
Scan type : Progressive
Bits/(Pixel*Frame) : 0.249
Stream size : 4.95 GiB (81%)
Writing library : x264 core 120 r2120bm 0c7dab9
Encoding settings : cabac=1 / ref=3 / deblock=1:-1:-1 / analyse=0x3:0x113 / me=hex / subme=7 / psy=1 / psy_rd=1.00:0.15 / mixed_ref=1 / me_range=16 / chroma_me=1 / trellis=1 / 8x8dct=1 / cqm=0 / deadzone=21,11 / fast_pskip=1 / chroma_qp_offset=-3 / threads=6 / sliced_threads=0 / nr=0 / decimate=1 / interlaced=0 / bluray_compat=0 / constrained_intra=0 / bframes=3 / b_pyramid=2 / b_adapt=1 / b_bias=0 / direct=1 / weightb=1 / open_gop=0 / weightp=2 / keyint=250 / keyint_min=23 / scenecut=40 / intra_refresh=0 / rc_lookahead=40 / rc=abr / mbtree=1 / bitrate=5500 / ratetol=1.0 / qcomp=0.60 / qpmin=0 / qpmax=69 / qpstep=4 / ip_ratio=1.40 / aq=1:1.00
Default : Yes
Forced : No
Audio #1
ID : 2
Format : AC-3
Format/Info : Audio Coding 3
Mode extension : CM (complete main)
Codec ID : A_AC3
Duration : 2h 12mn
Bit rate mode : Constant
Bit rate : 384 Kbps
Channel(s) : 6 channels
Channel positions : Front: L C R, Side: L R, LFE
Sampling rate : 48.0 KHz
Bit depth : 16 bits
Compression mode : Lossy
Stream size : 363 MiB (6%)
Language : Russian
Default : Yes
Forced : No
Audio #2
ID : 3
Format : AC-3
Format/Info : Audio Coding 3
Mode extension : CM (complete main)
Codec ID : A_AC3
Duration : 2h 12mn
Bit rate mode : Constant
Bit rate : 128 Kbps
Channel(s) : 2 channels
Channel positions : Front: L R
Sampling rate : 48.0 KHz
Bit depth : 16 bits
Compression mode : Lossy
Stream size : 121 MiB (2%)
Language : Ukrainian
Default : No
Forced : No
Audio #3
ID : 4
Format : AC-3
Format/Info : Audio Coding 3
Mode extension : CM (complete main)
Codec ID : A_AC3
Duration : 2h 12mn
Bit rate mode : Constant
Bit rate : 640 Kbps
Channel(s) : 6 channels
Channel positions : Front: L C R, Side: L R, LFE
Sampling rate : 48.0 KHz
Bit depth : 16 bits
Compression mode : Lossy
Stream size : 604 MiB (10%)
Language : English
Default : No
Forced : No

Скриншоты


Благодарности релизеру (1)

Торрент:

Статус:

Размер:

Зарегистрирован   [ 2012-05-23 00:05 ]

проверено

6.13 GB