Торренты   
 
 

 

Путешествие 2: Таинственный остров / Journey 2: The Mysterious Island [2012 г., BDrip., 1080p, Anamorph OverUnder]

Рейтинг 3D:
60 голосов
8.3
Рейтинг фильма:
55 голосов
7.2
 
Вы должны быть авторизированы,
чтобы ставить оценки



Путешествие 2: Таинственный остров

Год выпуска: 2012
Страна: США
Студии: Contrafilm, New Line Cinema, Walden Media
Жанр: фантастика, фэнтези, боевик, комедия, приключения, семейный
Продолжительность: 01:34:07
Перевод: Профессиональный (полное дублирование)-Режиссер:
Брэд Пейтон
Сценарий: Брайан Ганн, Марк Ганн, Ричард Ауттен
Продюсер: Бо Флинн, Шарлотта Клэй Хаггинс, Трип Винсон
Оператор: Дэвид Тэттерсолл
Композитор: Эндрю Локингтон
Художник: Билл Боэ, Брюс Роберт Хилл, Денис Уингейт
Монтаж: Дэвид Ренни
В ролях:
Дуэйн Джонсон, Майкл Кейн, Джош Хатчерсон, Ванесса Энн Хадженс, Луис Гузман, Кристин Дэвис, Анна Колвелл, Стивен Кодилл, Брэнском Ричмонд, Уолтер Бэнксон
Роли дублировали:
Юрий Брежнев, Василий Бочкарев, Мария Иващенко, Константин Карасик, Ольга Голованова и др.-Описание:
На этот раз Шон Андерсон получает закодированный сигнал с просьбой о помощи, причем с загадочного острова, из места, где никакого острова и быть не может. Там обитают странные формы жизни, скрываются горы золота, смертоносные вулканы и не одна ошеломляющая тайна. Отчиму Шона, не сумевшему остановить его, ничего не остается, как тоже присоединиться к поискам. Вместе с пилотом вертолета и его прекрасной и решительной дочерью им предстоит найти остров, спасти его одинокого обитателя и немедленно покинуть это место, прежде чем землетрясение скроет остров под водой и похоронит навеки его сокровища.-Проверено на встроенном плеере ТВ LG 42LW4500

-Качество: BDrip
Контейнер: MKV
Формат 3D: Anamorph OverUnder / Вертикальная анаморфная стереопара
Видео: AVC, 1920x1080, 23.976 кадр/сек, 18 Мбит/сек
Аудио 1: русский; AC3, 5.1, 640 Кбит/сек, 48,0 КГц |Дубляж, Blu-ray CEE|
Аудио 2: английский; AC3, 5.1, 640 Кбит/сек, 48,0 КГц
Аудио 3: украинский; AC3 5.1, 48 kHz, 640 kbps avg |Дубляж, Blu-ray CEE| (отдельно на Narod.Ru)
Субтитры: Russian (Full, Forced), Ukrainian (Full, Forced), English

СКРИНШОТЫ

MI

Код:
Общее
Уникальный идентификатор                 : 207117852703779501839761181342312428173 (0x9BD1728C57641669AD3DE4E5290BF28D)
Полное имя                               : D:\3D-RuGroup\Фильмы\Journey2.TheMysteriousIsland.3D.2012.BD3DRip.Half.OU.x264.AC3.Rus.Eng.3D-RuGroup.mkv
Формат                                   : Matroska
Версия формата                           : Version 2
Размер файла                             : 12,9 Гбайт
Продолжительность                        : 1 ч. 34 м.
Общий поток                              : 19,7 Мбит/сек
Название фильма                          : Journey 2: The Mysterious Island by 3D-RuGroup
Дата кодирования                         : UTC 2012-05-25 10:55:22
Программа кодирования                    : mkvmerge v3.4.0 ('Rapunzel') сборка от May 15 2010 09:38:20
Библиотека кодирования                   : libebml v0.8.0 + libmatroska v0.9.0
Видео
Идентификатор                            : 1
Формат                                   : AVC
Формат/Информация                        : Advanced Video Codec
Профиль формата                          : High@L4.1
Параметр CABAC формата                   : Да
Параметр ReFrames формата                : 4 кадра
Идентификатор кодека                     : V_MPEG4/ISO/AVC
Продолжительность                        : 1 ч. 34 м.
Битрейт                                  : 18,0 Мбит/сек
Ширина                                   : 1920 пикселей
Высота                                   : 1080 пикселей
Соотношение сторон                       : 16:9
Частота кадров                           : 23,976 кадра/сек
Цветовое пространство                    : YUV
Субдискретизация насыщенности            : 4:2:0
Битовая глубина                          : 8 бит
Тип развёртки                            : Прогрессивная
Бит/(Пиксели*Кадры)                      : 0.362
Размер потока                            : 11,8 Гбайт (92%)
Заголовок                                : Journey 2: The Mysterious Island by 3D-RuGroup by itsamna aka elephant
Библиотека кодирования                   : x264 core 116 r2074 2641b9e
Настройки программы                      : cabac=1 / ref=4 / deblock=1:-3:-3 / analyse=0x3:0x133 / me=umh / subme=9 / psy=1 / psy_rd=1.00:0.15 / mixed_ref=1 / me_range=32 / chroma_me=1 / trellis=2 / 8x8dct=1 / cqm=0 / deadzone=21,11 / fast_pskip=0 / chroma_qp_offset=-3 / threads=3 / sliced_threads=0 / nr=0 / decimate=1 / interlaced=0 / bluray_compat=0 / constrained_intra=0 / bframes=7 / b_pyramid=2 / b_adapt=2 / b_bias=0 / direct=3 / weightb=1 / open_gop=0 / weightp=2 / keyint=250 / keyint_min=23 / scenecut=40 / intra_refresh=0 / rc_lookahead=60 / rc=crf / mbtree=1 / crf=18.0 / qcomp=0.70 / qpmin=0 / qpmax=69 / qpstep=4 / vbv_maxrate=50000 / vbv_bufsize=50000 / crf_max=0.0 / nal_hrd=none / ip_ratio=1.40 / aq=1:0.70
Default                                  : Да
Forced                                   : Нет
Аудио #1
Идентификатор                            : 2
Формат                                   : AC-3
Формат/Информация                        : Audio Coding 3
Расширение режима                        : CM (complete main)
Идентификатор кодека                     : A_AC3
Продолжительность                        : 1 ч. 34 м.
Вид битрейта                             : Постоянный
Битрейт                                  : 640 Кбит/сек
Каналы                                   : 6 каналов
Расположение каналов                     : Front: L C R, Side: L R, LFE
Частота                                  : 48,0 КГц
Битовая глубина                          : 16 бит
Метод сжатия                             : С потерями
Размер потока                            : 431 Мбайт (3%)
Заголовок                                : Dub
Язык                                     : Russian
Default                                  : Да
Forced                                   : Нет
Аудио #2
Идентификатор                            : 3
Формат                                   : AC-3
Формат/Информация                        : Audio Coding 3
Расширение режима                        : CM (complete main)
Идентификатор кодека                     : A_AC3
Продолжительность                        : 1 ч. 34 м.
Вид битрейта                             : Постоянный
Битрейт                                  : 640 Кбит/сек
Каналы                                   : 6 каналов
Расположение каналов                     : Front: L C R, Side: L R, LFE
Частота                                  : 48,0 КГц
Битовая глубина                          : 16 бит
Метод сжатия                             : С потерями
Размер потока                            : 431 Мбайт (3%)
Заголовок                                : original
Язык                                     : English
Default                                  : Нет
Forced                                   : Нет
Текст #1
Идентификатор                            : 4
Формат                                   : UTF-8
Идентификатор кодека                     : S_TEXT/UTF8
Идентификатор кодека/Информация          : UTF-8 Plain Text
Заголовок                                : Forced
Язык                                     : Russian
Default                                  : Нет
Forced                                   : Нет
Текст #2
Идентификатор                            : 5
Формат                                   : UTF-8
Идентификатор кодека                     : S_TEXT/UTF8
Идентификатор кодека/Информация          : UTF-8 Plain Text
Заголовок                                : Full
Язык                                     : Russian
Default                                  : Нет
Forced                                   : Нет
Текст #3
Идентификатор                            : 6
Формат                                   : UTF-8
Идентификатор кодека                     : S_TEXT/UTF8
Идентификатор кодека/Информация          : UTF-8 Plain Text
Заголовок                                : Forced
Язык                                     : Ukrainian
Default                                  : Нет
Forced                                   : Нет
Текст #4
Идентификатор                            : 7
Формат                                   : UTF-8
Идентификатор кодека                     : S_TEXT/UTF8
Идентификатор кодека/Информация          : UTF-8 Plain Text
Заголовок                                : Full
Язык                                     : Ukrainian
Default                                  : Нет
Forced                                   : Нет
Текст #5
Идентификатор                            : 8
Формат                                   : UTF-8
Идентификатор кодека                     : S_TEXT/UTF8
Идентификатор кодека/Информация          : UTF-8 Plain Text
Заголовок                                : Full
Язык                                     : English
Default                                  : Нет
Forced                                   : Нет
Меню
00:00:00.000                             : en:Chapter 01
00:10:52.401                             : en:Chapter 02
00:19:13.277                             : en:Chapter 03
00:30:06.805                             : en:Chapter 04
00:39:21.442                             : en:Chapter 05
00:49:58.662                             : en:Chapter 06
00:59:03.456                             : en:Chapter 07
01:09:11.772                             : en:Chapter 08
01:19:27.095                             : en:Chapter 09
01:26:03.491                             : en:Chapter 10
Благодарности релизеру (58)

Торрент:

Статус:

Размер:

Зарегистрирован   [ 2012-05-25 15:50 ]

проверено

12.94 GB

 
 Мнение о фильме (9)





Спасибо большое, отличный фильм, отличное стерео (3D), сюжет тоже понравился и прежде всего, отсутствием жестокости и насилия. Побольше бы таких.
 

Отличный фильм для тех, кто подыскивает - что бы такого порекомендовать врагу на просмотр :)
Рейтинг на rottentomatoes.com, пожалуй, наиболее точно отражает ценность данного поделия для зрителя... После этого начинаешь понимать, что Prometheus - вполне ещё ничего фильм :)
 

Хороший фильм
 

"Отличный фильм для тех, кто подыскивает - что бы такого порекомендовать врагу на просмотр :)"
Значит, хорошие сапоги, надо брать! (с)
 

отличный всевозрастной семейный фильм
 

Хороший фильм для семейного просмотра, хорошее 3D. Спасибо раздающему
 

Соглашусь с Vladimir1967.
на удивление приятное впечатление, достаточно живенько красочно и позитивно. и объем вполне комфортный и эффектный где нужен с усилением к развязке сюжета! есть кое-какие пунктики по поводу вертикальных параллаксов, но не будем о них ))) спасибо автору.
 

Посмотреть можно , но в первой части вылетов побольше , но здесь картинка лучше
 

Хороший фильм.Семейный.Спасибо)))