Торренты   
 
 

 

Путешествие 2: Таинственный остров в 3Д / Journey 2: The Mysterious Island 3D (Брэд Пейтон / Brad Peyton) [2012, BDrip, 1080p, Full OverUnder]

Рейтинг 3D:
26 голосов
8.5
Рейтинг фильма:
25 голосов
8.2
 
Вы должны быть авторизированы,
чтобы ставить оценки


Путешествие 2: Таинственный остров / Journey 2: The Mysterious Island

Год выпуска: 2012
Страна: США
Студия: Contrafilm, New Line Cinema, Walden Media
Жанр: фантастика, фэнтези, боевик, комедия, приключения,
Продолжительность: 01:34:07
Перевод: Профессиональный (дублированный)
Русские субтитры: есть
Режиссер на русском: Брэд Пейтон
Режиссер на английском: Brad Peyton
В ролях: Дуэйн Джонсон, Майкл Кейн, Джош Хатчерсон, Ванесса Энн Хадженс, Луис Гузман, Кристин Дэвис, Анна Колвелл, Стивен Кодилл, Брэнском Ричмонд, Уолтер Бэнксон

Роли озвучивали: Юрий Брежнев, Василий Бочкарев, Мария Иващенко, Константин Карасик, Ольга Голованова
Описание: На этот раз Шон Андерсон получает закодированный сигнал с просьбой о помощи, причем с загадочного острова, из места, где никакого острова и быть не может. Там обитают странные формы жизни, скрываются горы золота, смертоносные вулканы и не одна ошеломляющая тайна. Отчиму Шона, не сумевшему остановить его, ничего не остается, как тоже присоединиться к поискам. Вместе с пилотом вертолета и его прекрасной и решительной дочерью им предстоит найти остров, спасти его одинокого обитателя и немедленно покинуть это место, прежде чем землетрясение скроет остров под водой и похоронит навеки его сокровища.
На встроенных ТВ-плейерах работать не будет!!!
Качество: BDrip
Контейнер: MKV
Формат 3D: OverUnder / Вертикальная стереопара
Порядок ракурсов: левый ракурс первый
Видео кодек: x264
Аудио кодек: AC3, DTS
Видео: AVC / 1920х2160 / 23,976 кадр/сек / 31,6 Мбит/сек
Аудио 1: Русский / AC3 / 48 KHz / 5.1 ch / 640 Kbps
Аудио 2: Английский / DTS / 48 KHz / 5.1 ch / 1510 Kbps
Субтитры srt: Русские форсированные, Русские полные, Украинские форсированные, Украинские полные, Английские SDH, Английские полные

MediaInfo

General
Complete name : D:\3D Кинофильмы\Путешествие 2 Таинственный остров (2012).mkv
Format : Matroska
File size : 22.7 GiB
Duration : 1h 34mn
Overall bit rate : 34.4 Mbps
Movie name : Journey 2: The Mysterious Island (2012) - HQ-ViDEO
Encoded date : UTC 2012-05-27 07:26:30
Writing application : mkvmerge v3.4.0 ('Rapunzel') сборка от May 15 2010 09:38:20
Writing library : libebml v0.8.0 + libmatroska v0.9.0
Video
ID : 1
Format : AVC
Format/Info : Advanced Video Codec
Format profile : High@L5.0
Format settings, CABAC : Yes
Format settings, ReFrames : 5 frames
Muxing mode : Container profile=Unknown@5.0
Codec ID : V_MPEG4/ISO/AVC
Duration : 1h 34mn
Bit rate : 31.6 Mbps
Width : 1 920 pixels
Height : 2 160 pixels
Display aspect ratio : 0.889
Frame rate : 23.976 fps
Color space : YUV
Chroma subsampling : 4:2:0
Bit depth : 8 bits
Scan type : Progressive
Bits/(Pixel*Frame) : 0.318
Stream size : 20.8 GiB (92%)
Writing library : x264 core 119 r2106 07efeb4
Encoding settings : cabac=1 / ref=5 / deblock=1:-3:-3 / analyse=0x3:0x113 / me=umh / subme=9 / psy=1 / psy_rd=1.00:0.15 / mixed_ref=1 / me_range=16 / chroma_me=1 / trellis=2 / 8x8dct=1 / cqm=0 / deadzone=21,11 / fast_pskip=1 / chroma_qp_offset=-3 / threads=6 / sliced_threads=0 / nr=0 / decimate=1 / interlaced=0 / bluray_compat=0 / constrained_intra=0 / bframes=4 / b_pyramid=2 / b_adapt=2 / b_bias=0 / direct=3 / weightb=1 / open_gop=0 / weightp=2 / keyint=250 / keyint_min=23 / scenecut=40 / intra_refresh=0 / rc_lookahead=40 / rc=crf / mbtree=1 / crf=18.0 / qcomp=0.60 / qpmin=10 / qpmax=69 / qpstep=4 / vbv_maxrate=40000 / vbv_bufsize=40000 / crf_max=0.0 / nal_hrd=none / ip_ratio=1.40 / aq=1:1.00
Audio #1
ID : 2
Format : AC-3
Format/Info : Audio Coding 3
Mode extension : CM (complete main)
Codec ID : A_AC3
Duration : 1h 34mn
Bit rate mode : Constant
Bit rate : 640 Kbps
Channel(s) : 6 channels
Channel positions : Front: L C R, Side: L R, LFE
Sampling rate : 48.0 KHz
Bit depth : 16 bits
Stream size : 431 MiB (2%)
Language : Russian
Audio #2
ID : 3
Format : DTS
Format/Info : Digital Theater Systems
Codec ID : A_DTS
Duration : 1h 34mn
Bit rate mode : Constant
Bit rate : 1 510 Kbps
Channel(s) : 6 channels
Channel positions : Front: L C R, Side: L R, LFE
Sampling rate : 48.0 KHz
Bit depth : 24 bits
Stream size : 1 017 MiB (4%)
Text #1
ID : 4
Format : UTF-8
Codec ID : S_TEXT/UTF8
Codec ID/Info : UTF-8 Plain Text
Title : Forced
Language : Russian
Text #2
ID : 5
Format : UTF-8
Codec ID : S_TEXT/UTF8
Codec ID/Info : UTF-8 Plain Text
Title : Full
Language : Russian
Text #3
ID : 6
Format : UTF-8
Codec ID : S_TEXT/UTF8
Codec ID/Info : UTF-8 Plain Text
Title : Forced
Language : Ukrainian
Text #4
ID : 7
Format : UTF-8
Codec ID : S_TEXT/UTF8
Codec ID/Info : UTF-8 Plain Text
Title : Full
Language : Ukrainian
Text #5
ID : 8
Format : UTF-8
Codec ID : S_TEXT/UTF8
Codec ID/Info : UTF-8 Plain Text
Language : English
Text #6
ID : 9
Format : UTF-8
Codec ID : S_TEXT/UTF8
Codec ID/Info : UTF-8 Plain Text
Title : SDH
Language : English

Скриншоты

Благодарности релизеру (9)

Торрент:

Статус:

Размер:

Зарегистрирован   [ 2012-05-29 12:40 ]

проверено

22.65 GB

 
 Мнение о фильме (7)





Редкая шляпа....3Д более\менее...
 

самый лучший фильм, что касаемо эффектов и сюжета!
 

С удовольствием посмотрел этот приключенческий фильм ,не сильно замудрённый сюжет ,качественное 3D.
 

Хороший семейный фильм с качественным 3д и не затейливым сюжетом. Рекомендую посмотреть.
 

Скачиваю все фильмы на английском, как скачать на русском?
 
Евгения Сащихина Профиль 01-Июл-2013 23:02

Евгения Сащихина, а какие с этим проблемы? Вы вообще-то откуда скачиваете на английском? Чем Вас этот трекер не устраивает?
 

Сюжетик так, но смотреть можно