Торренты   
 
 


Призрачный гонщик 2 / Ghost Rider: Spirit of Vengeance [2011, BDrip, half1080p, Anamorph OverUnder]

Рейтинг 3D:
35 голосов
6.5
Рейтинг фильма:
36 голосов
6.7
 
Вы должны быть авторизированы,
чтобы ставить оценки


© Закрыто правообладателем
Год выпуска: 2011
Страна: США, ОАЭ (Columbia Pictures, Hyde Park Entertainment, Imagenation Abu Dhabi, Crystal Sky, Marvel Knights)
Жанр: Фэнтези, Боевик, Триллер
Продолжительность: 01:35:31
Перевод: Профессиональный (дублированный)
Режиссеры: Марк Невелдайн, Брайан Тейлор / Mark Neveldine, Brian Taylor
В ролях: Николас Кейдж, Кирен Хайдз, Виоланте Плачидо, Джонни Витуорт, Кристофер Ламберт, Идрис Эльба, Фергус Риордан, Спенсер Уидлинг, Сорин Тофан, Яцек Коман, Энтони Хэд
Роли дублировали: Александр Рахленко, Тимофей Спивак, Татьяна Шитова, Александр Гаврилин, Андрей Градов, Владислав Копп, Иван Дахненко
Описание: Действие разворачивается на задворках Восточной Европы, где главный герой Джонни Блэйз безуспешно пытается справиться со своим проклятием. Его принимает на работу некая секта, которая пытается заполучить дьявола в тот момент, когда он пытается вселиться в тело его смертного сына на дне рождения мальчика.
Доп. информация: Прежде чем качать, почитайте отзывы о фильме (например в 2д релизах других трекеров).--Премьера: 11 декабря 2011 (Россия - 23 февраля 2012)
Бюджет: $57 000 000
Кассовые сборы: $132 563 930

Проверено на встроенном плейере ТВ Samsung UE-C7000--Формат 3d: Anamorph OverUnder
Качество: BDrip
Контейнер: MKV-Видео: AVC / 23,976 fps / 1920х1080p / 8409 Kbps
Аудио
#1: Русский / AC3 / 48 KHz / 5.1 ch / 640 Kbps
#2: Английский / AC3 / 48 KHz / 5.1 ch / 640 Kbps
Субтитры (SRT)
Внешние - Русские Форсированные (включены по умолчанию)
Вшитые softsub:
#1 - Русские Форсированные (включены по умолчанию)
#2 - Русские Полные
#3 - English Forced
#4 - English Full
#5 - English SDH

MediaInfo

General
UniqueID : 221328176678181681381678257083051959144 (0xA682419CE25F0EA3A22BDFF3D2286368)
Complete name : F:\Downloads\GhostRider2(3D)2011.halfOU(Ash61)\GhostRider2(3D)2011.halfOU(Ash61).mkv
Format : Matroska
File size : 6.60 GiB
Duration : 1h 35mn
Overall bit rate : 9 886 Kbps
Movie name : Ghost Rider: Spirit of Vengeance (3D) 2011 (by Ash61)
Encoded date : UTC 2012-06-04 07:58:48
Writing application : mkvmerge v3.4.0 ('Rapunzel') сборка от May 15 2010 09:38:20
Writing library : libebml v0.8.0 + libmatroska v0.9.0
Video
ID : 1
Format : AVC
Format/Info : Advanced Video Codec
Format profile : High@L4.1
Format settings, CABAC : Yes
Format settings, ReFrames : 4 frames
Codec ID : V_MPEG4/ISO/AVC
Duration : 1h 35mn
Bit rate : 8 409 Kbps
Width : 1 920 pixels
Height : 1 080 pixels
Display aspect ratio : 16:9
Frame rate : 23.976 fps
Color space : YUV
Chroma subsampling : 4:2:0
Bit depth : 8 bits
Scan type : Progressive
Bits/(Pixel*Frame) : 0.169
Stream size : 5.61 GiB (85%)
Title : BDrip by Ash61
Writing library : x264 core 119 r2106 07efeb4
Encoding settings : cabac=1 / ref=4 / deblock=1:-3:-3 / analyse=0x3:0x113 / me=umh / subme=9 / psy=1 / psy_rd=1.00:0.15 / mixed_ref=1 / me_range=16 / chroma_me=1 / trellis=2 / 8x8dct=1 / cqm=0 / deadzone=21,11 / fast_pskip=1 / chroma_qp_offset=-3 / threads=3 / sliced_threads=0 / nr=0 / decimate=1 / interlaced=0 / bluray_compat=0 / constrained_intra=0 / bframes=6 / b_pyramid=2 / b_adapt=2 / b_bias=0 / direct=3 / weightb=1 / open_gop=0 / weightp=2 / keyint=250 / keyint_min=23 / scenecut=40 / intra_refresh=0 / rc_lookahead=60 / rc=crf / mbtree=1 / crf=18.0 / qcomp=0.70 / qpmin=0 / qpmax=69 / qpstep=4 / vbv_maxrate=40000 / vbv_bufsize=40000 / crf_max=0.0 / nal_hrd=none / frame-packing=4 / ip_ratio=1.40 / aq=1:0.70
Audio #1
ID : 2
Format : AC-3
Format/Info : Audio Coding 3
Mode extension : CM (complete main)
Codec ID : A_AC3
Duration : 1h 35mn
Bit rate mode : Constant
Bit rate : 640 Kbps
Channel(s) : 6 channels
Channel positions : Front: L C R, Side: L R, LFE
Sampling rate : 48.0 KHz
Bit depth : 16 bits
Compression mode : Lossy
Stream size : 437 MiB (6%)
Title : Дубляж (Edit by Ash61)
Language : Russian
Audio #2
ID : 3
Format : AC-3
Format/Info : Audio Coding 3
Mode extension : CM (complete main)
Codec ID : A_AC3
Duration : 1h 35mn
Bit rate mode : Constant
Bit rate : 640 Kbps
Channel(s) : 6 channels
Channel positions : Front: L C R, Side: L R, LFE
Sampling rate : 48.0 KHz
Bit depth : 16 bits
Compression mode : Lossy
Stream size : 437 MiB (6%)
Title : Original
Language : English
Text #1
ID : 4
Format : UTF-8
Codec ID : S_TEXT/UTF8
Codec ID/Info : UTF-8 Plain Text
Title : Форсированные
Language : Russian
Text #2
ID : 5
Format : UTF-8
Codec ID : S_TEXT/UTF8
Codec ID/Info : UTF-8 Plain Text
Title : Полные
Language : Russian
Text #3
ID : 6
Format : UTF-8
Codec ID : S_TEXT/UTF8
Codec ID/Info : UTF-8 Plain Text
Title : Forced
Language : English
Text #4
ID : 7
Format : UTF-8
Codec ID : S_TEXT/UTF8
Codec ID/Info : UTF-8 Plain Text
Title : Full
Language : English
Text #5
ID : 8
Format : UTF-8
Codec ID : S_TEXT/UTF8
Codec ID/Info : UTF-8 Plain Text
Title : SDH
Language : English
Menu
00:00:00.000 : :1
00:06:34.060 : :2
00:11:54.213 : :3
00:15:15.331 : :4
00:19:09.273 : :5
00:25:47.588 : :6
00:28:22.618 : :7
00:35:01.516 : :8
00:43:24.018 : :9
00:51:51.066 : :10
01:00:00.305 : :11
01:03:59.335 : :12
01:11:04.760 : :13
01:14:01.103 : :14
01:20:02.131 : :15
01:25:29.207 : :16

Скриншоты

GIF-скрины для оценки 3Д (960х540 px) (левый/правый ракурсы)



Covers & Labels (3 пары)






5.06.2012 - Релиз обновлён - видео заменено на мой рип, русское аудио - на дорогу с БД. Желающие, скачайте заново торрент-файл.
Остальные раздачи этого фильма (5)
Благодарности релизеру (12)

Торрент:

Статус:

Размер:

Зарегистрирован   [ 2012-06-05 14:46 ]

© закрыто правообладателем

6.6 GB