Торренты   
 
 


Джеймс понт 3D / Torrente 4 : Lethal Crisis 3D (Сантьяго Сегура) [2011 г., Anamorph SideBySide]

Рейтинг 3D:
16 голосов
6.8
Рейтинг фильма:
15 голосов
6.1
 
Вы должны быть авторизированы,
чтобы ставить оценки


Джеймс понт 3D / Torrente 4 : Lethal Crisis 3D
Год выпуска: 2011
Страна: Испания
Жанр: Комедия, боевик
Продолжительность: 01:33
Перевод: Любительский (одноголосый) (чистый звук)
Режиссер: Сантьяго Сегура
В ролях: Сантьяго Сегура, Карлос Арэсес, Гойо Хименес, Хавьер Гутиеррез, Эрнесто Севилья, Мария Лапьедра, Франциско, Томаш Поцци, Кико Ривера, Долорес Гонзалез, Сильвия Абрил, Хосе Мария Рубио, Энрике Вийен, Дэвид Кастилло
Описание: Похождения любимого народного героя и циничного подонка в одном лице. Как обычно, много простого и понятного юмора ниже пояса, много шуток про медийных персонажей, которые сами охотно снимаются в эпизодах.
Формат 3d: Anamorph SideBySide
Порядок ракурсов: Параллельная пара

MediaInfo

General
Format : Matroska
Format version : Version 2
File size : 7.96 GiB
Duration : 1h 36mn
Overall bit rate : 11.8 Mbps
Movie name : Torrente 4 3D Half-SBS
Encoded date : UTC 2012-05-31 13:31:20
Writing application : mkvmerge v4.4.0 ('Die Wiederkehr') сборка от Oct 31 2010 21:52:48
Writing library : libebml v1.0.0 + libmatroska v1.0.0
Video
ID : 1
Format : AVC
Format/Info : Advanced Video Codec
Format profile : High@L4.1
Format settings, CABAC : Yes
Format settings, ReFrames : 2 frames
Codec ID : V_MPEG4/ISO/AVC
Duration : 1h 36mn
Bit rate : 9 847 Kbps
Width : 1 920 pixels
Height : 1 080 pixels
Display aspect ratio : 16:9
Frame rate : 23.976 fps
Color space : YUV
Chroma subsampling : 4:2:0
Bit depth : 8 bits
Scan type : Progressive
Bits/(Pixel*Frame) : 0.198
Stream size : 6.65 GiB (84%)
Writing library : x264 core
Default : Yes
Forced : No
Color primaries : BT.709-5, BT.1361, IEC 61966-2-4, SMPTE RP177
Transfer characteristics : BT.709-5, BT.1361
Matrix coefficients : BT.709-5, BT.1361, IEC 61966-2-4 709, SMPTE RP177
Audio #1
ID : 2
Format : MPEG Audio
Format version : Version 1
Format profile : Layer 3
Mode : Joint stereo
Codec ID : A_MPEG/L3
Codec ID/Hint : MP3
Duration : 1h 36mn
Bit rate mode : Constant
Bit rate : 192 Kbps
Channel(s) : 2 channels
Sampling rate : 48.0 KHz
Compression mode : Lossy
Stream size : 133 MiB (2%)
Language : Russian
Default : Yes
Forced : Yes
Audio #2
ID : 3
Format : DTS
Format/Info : Digital Theater Systems
Format profile : ES
Codec ID : A_DTS
Duration : 1h 36mn
Bit rate mode : Constant
Bit rate : 1 510 Kbps
Channel(s) : 6 channels
Channel positions : Front: L C R, Side: L R, LFE
Sampling rate : 48.0 KHz
Bit depth : 16 bits
Compression mode : Lossy
Delay relative to video : 11ms
Stream size : 1.02 GiB (13%)
Language : Spanish
Default : No
Forced : No
Menu
00:00:00.000 : en:(01)00:00:00:000
00:07:54.307 : en:(02)00:07:54:307
00:10:25.333 : en:(03)00:10:25:333
00:13:31.352 : en:(04)00:13:31:352
00:17:19.288 : en:(05)00:17:19:288
00:21:16.566 : en:(06)00:21:16:566
00:23:39.501 : en:(07)00:23:39:501
00:28:12.607 : en:(08)00:28:12:607
00:34:07.336 : en:(09)00:34:07:336
00:40:38.102 : en:(10)00:40:38:102
00:43:46.915 : en:(11)00:43:46:915
00:47:59.084 : en:(12)00:47:59:084
00:51:51.191 : en:(13)00:51:51:191
00:55:15.895 : en:(14)00:55:15:895
01:01:06.788 : en:(15)01:01:06:788
01:05:52.573 : en:(16)01:05:52:573
01:09:41.135 : en:(17)01:09:41:135
01:15:49.545 : en:(18)01:15:49:545
01:20:15.602 : en:(19)01:20:15:602
01:25:10.688 : en:(20)01:25:10:688
01:31:05.460 : en:(21)01:31:05:460

Скриншоты

Full Credit to " The3DTeam " for this awesome release !
ВНИМАНИЕ ТОЛЬКО ДЛЯ ВЗРОСЛЫХ !!! (Присутствуют эротические сцены и МАТ)
Звук заменен на нормальный - перекачайте торрент-файл
Благодарности релизеру (24)

Торрент:

Статус:

Размер:

Зарегистрирован   [ 2012-06-07 18:42 ]

проверено

8.09 GB

 
 Мнение о фильме (9)





филм отличный я два раза обосался первый раз в ночали а потом в конце спс автору
 

Вночали гавариш абосалса? Нада будит скочать пазырить.
 

ну и орфография у амстафф)))
 

как фильм?
 

такая хрень
 

Фильм просто ржач! У кого туго с юмором не советую смотреть )
 

Фильм говно. Надо иметь тупой американский юмор чтобы смеяться смотря этот "фильм"
 

Miram не всё так плохо , и американцы тут нипричём ! отличная комедия с испанским юмором :)
 
ВАСИЛИЙ СОЛОМОН Профиль 10-Май-2013 16:22

Отличный фильм - веселая,прикольная комедия