Торренты   
 
 

 

Медведь Йоги / Yogi Bear [2010, BDrip, half1080p, Anamorph OverUnder]

Рейтинг 3D:
32 голосов
8.0
Рейтинг фильма:
31 голосов
7.7
 
Вы должны быть авторизированы,
чтобы ставить оценки


-Медведь ЙогиYogi Bear
Год выпуска: 2010
Страна: США, Новая Зеландия (Warner Bros. Pictures)
Жанр: Приключения, Комедия, Семейный
Продолжительность: 01:20:23
Перевод: Профессиональный (дублированный) - Русский и Украинский
Режиссер: Эрик Бревиг / Eric Brevig-Роли исполняли / дублировали: - -Йоги - Дэн Эйкройд / Владимир Антоник
Бу-Бу - Джастин Тимберлэйк / Диомид Виноградов
Рейнджер Смит - Томас Кэвэна / Василий Дахненко
Рэчел Джонсон - Анна Фэрис / Ольга Голованова
Рейнджер Джонс - ТиДжей Миллер / Иван Жарков
Мэр Браун - Эндрю Дэйли / Всеволод Кузнецов
Помощник мэра - Натан Кордри / Антон Эльдаров
Рассказчик - Джош Роберт Томпсон / Андрей Ярославцев-Описание: Дела в парке Джеллистоун идут не очень, и жадный мэр Браун решает закрыть его и продать землю. А это значит, что многие семьи больше не смогут насладиться красотами природы, но, что еще хуже, Йоги и его друг Бу-Бу будут выброшены из их единственного дома, где они прожили всю жизнь. Приняв теперь величайший вызов в своей жизни, Йоги должен доказать, что он действительно «умнее обычных медведей». Он и Бу-Бу объединяются со своим старым противником рейнджером Смитом, чтобы найти способ спасти Джеллистоун от закрытия.--Премьера: 18 марта 2010
Бюджет: $80 000 000
Кассовые сборы: $201 584 141
DVD в США: $16 748 412

Проверено на встроенном плейере ТВ Samsung UE-C7000--Формат 3d: Anamorph OverUnder
Качество: BDrip
Контейнер: MKV-Видео: AVC / 23,976 fps / 1920х1080p / 21.1 Mbps
Аудио
#1: Русский / AC3 / 48 KHz / 5.1 ch / 640 Kbps
#2: Украинский / AC3 / 48 KHz / 5.1 ch / 640 Kbps
#3: Английский / AC3 / 48 KHz / 5.1 ch / 640 Kbps
Субтитры (SRT)
Внешние:
Русские Форсированные (включены по умолчанию)
Вшитые softsub:
#1 - Русские Форсированные (включены по умолчанию)
#2 - Русские Полные
#3 - English SDH

MediaInfo

General
UniqueID : 182128469005489345331001126141253773597 (0x8904AACED1A9CAB1981BD5CAF651E91D)
Complete name : F:\Downloads\YogiBear(3D)2010.halfOU(Ash61)\YogiBear(3D)2010.halfOU(Ash61).mkv
Format : Matroska
File size : 13.2 GiB
Duration : 1h 20mn
Overall bit rate : 23.5 Mbps
Movie name : Yogi Bear (3D) 2010 (by Ash61)
Encoded date : UTC 2012-06-05 21:06:48
Writing application : mkvmerge v3.4.0 ('Rapunzel') сборка от May 15 2010 09:38:20
Writing library : libebml v0.8.0 + libmatroska v0.9.0
Video
ID : 1
Format : AVC
Format/Info : Advanced Video Codec
Format profile : High@L4.1
Format settings, CABAC : Yes
Format settings, ReFrames : 4 frames
Codec ID : V_MPEG4/ISO/AVC
Duration : 1h 20mn
Bit rate : 21.1 Mbps
Width : 1 920 pixels
Height : 1 080 pixels
Display aspect ratio : 16:9
Frame rate : 23.976 fps
Color space : YUV
Chroma subsampling : 4:2:0
Bit depth : 8 bits
Scan type : Progressive
Bits/(Pixel*Frame) : 0.425
Stream size : 11.9 GiB (90%)
Title : BDrip by Ash61
Writing library : x264 core 119 r2106 07efeb4
Encoding settings : cabac=1 / ref=4 / deblock=1:-3:-3 / analyse=0x3:0x113 / me=umh / subme=9 / psy=1 / psy_rd=1.00:0.15 / mixed_ref=1 / me_range=16 / chroma_me=1 / trellis=2 / 8x8dct=1 / cqm=0 / deadzone=21,11 / fast_pskip=1 / chroma_qp_offset=-3 / threads=3 / sliced_threads=0 / nr=0 / decimate=1 / interlaced=0 / bluray_compat=0 / constrained_intra=0 / bframes=6 / b_pyramid=2 / b_adapt=2 / b_bias=0 / direct=3 / weightb=1 / open_gop=0 / weightp=2 / keyint=250 / keyint_min=23 / scenecut=40 / intra_refresh=0 / rc_lookahead=60 / rc=crf / mbtree=1 / crf=17.0 / qcomp=0.70 / qpmin=0 / qpmax=69 / qpstep=4 / vbv_maxrate=40000 / vbv_bufsize=40000 / crf_max=0.0 / nal_hrd=none / frame-packing=4 / ip_ratio=1.40 / aq=1:0.70
Audio #1
ID : 2
Format : AC-3
Format/Info : Audio Coding 3
Mode extension : CM (complete main)
Codec ID : A_AC3
Duration : 1h 20mn
Bit rate mode : Constant
Bit rate : 640 Kbps
Channel(s) : 6 channels
Channel positions : Front: L C R, Side: L R, LFE
Sampling rate : 48.0 KHz
Bit depth : 16 bits
Compression mode : Lossy
Stream size : 368 MiB (3%)
Title : Дубляж
Language : Russian
Audio #2
ID : 3
Format : AC-3
Format/Info : Audio Coding 3
Mode extension : CM (complete main)
Codec ID : A_AC3
Duration : 1h 20mn
Bit rate mode : Constant
Bit rate : 640 Kbps
Channel(s) : 6 channels
Channel positions : Front: L C R, Side: L R, LFE
Sampling rate : 48.0 KHz
Bit depth : 16 bits
Compression mode : Lossy
Stream size : 368 MiB (3%)
Title : Дубляж
Language : Ukrainian
Audio #3
ID : 4
Format : AC-3
Format/Info : Audio Coding 3
Mode extension : CM (complete main)
Codec ID : A_AC3
Duration : 1h 20mn
Bit rate mode : Constant
Bit rate : 640 Kbps
Channel(s) : 6 channels
Channel positions : Front: L C R, Side: L R, LFE
Sampling rate : 48.0 KHz
Bit depth : 16 bits
Compression mode : Lossy
Stream size : 368 MiB (3%)
Title : Original
Language : English
Text #1
ID : 5
Format : UTF-8
Codec ID : S_TEXT/UTF8
Codec ID/Info : UTF-8 Plain Text
Title : Форсированные
Language : Russian
Text #2
ID : 6
Format : UTF-8
Codec ID : S_TEXT/UTF8
Codec ID/Info : UTF-8 Plain Text
Title : Полные
Language : Russian
Text #3
ID : 7
Format : UTF-8
Codec ID : S_TEXT/UTF8
Codec ID/Info : UTF-8 Plain Text
Title : SDH
Language : English
Menu
00:00:00.000 : :1
00:12:01.679 : :2
00:20:53.127 : :3
00:30:57.272 : :4
00:41:42.834 : :5
00:51:03.978 : :6
00:59:09.171 : :7
01:12:53.786 : :8

Cover & Labels



Остальные раздачи этого фильма (5)
Благодарности релизеру (13)

Торрент:

Статус:

Размер:

Зарегистрирован   [ 2012-06-07 02:34 ]

проверено

13.21 GB

 
 Мнение о фильме (10)





 

И о чём нам должна сказать эта ссылка на страничку Кинопоиска, мы её уже не раз видели! Типа 31 марта? Ну дык юзайте трекеры и постоянно будете видеть на них раньше, чем там обещано! И высказывания типа: "Это ещё не вышло, знач фэйк!", мы тоже уже сто раз видели! :)
 

3D очень хорошее. На телевизоре Lg 55W смотрится отлично. Вылеты и объем замечательные. По качеству сравнимо с концертом Scorpions.
 

3Д отличное, на уровне "Путешествие к центру земли " 2008 года
 

3D отличное, самый что ни но есть семейный фильмец, смеялись много, Спасибо Александр! А да, мэр городка точная копия мэров наших больших и малых городков: посерил и уже думает кому продать своё г..))
 

Спасибо за фильм!!! Всей семьей на одном дыхание посмотрели! Всем понравилось! Картинка объемная!
 

Спасибо!!! 3д и сам фильм в отличном качестве. качайте не пожелеете.
 

Спасибо! Фильм понравился, хоть и сюжет банальный, посмеялись. 3D вылеты порадовали особенно в паре с акустикой 5.1 великолепно!!! Я аж дернулся уворачиваться :)
 

Спасибо! фильм очень понравился. Качество отличное, 3D отличное. Простой, добрый фильм, посмотрели всей семьей два раза подряд. Всем спасибо за раздачу!
 

Фильм для семейого просмотра в самый раз, 3-д улет))))))
 
Алексей "51" Профиль 09-Мар-2014 16:03