Торренты   
 
 

 

Дикая южная Африка / Wildlife Südafrika / Wildlife South Africa (2012, BDrip, half1080p, Anamorph OverUnder)

Рейтинг 3D:
6 голосов
8.8
Рейтинг фильма:
6 голосов
8.8
 
Вы должны быть авторизированы,
чтобы ставить оценки


Дикая южная АфрикаWildlife SüdafrikaWildlife South Africa- Год выпуска: 2012
Страна: Германия (New KSM)
Жанр: Документальный
Продолжительность: 00:49:27 + 00:49:41 + 00:47:18
Перевод: Одноголосый закадровый (BD3D)
Режиссер: Norbert Vander
Продюсеры: Benjamin Krause, Peter Baaten--Описание-Диск 1: Сафари / Safari. Очень популярным в мире видом туризма является поездка в Африку на сафари. Он позволяет сохранить обитателей дикой природы и заповедников в их родной среде обитания.
В этом фильме мы увидим не только львов, леопардов, носорогов, слонов и буйволов, но также бегемотов, антилоп и редких диких собак. А также пообщаемся с работником заповедника.-Диск 2: Большая пятёрка / Big Five. Лев, носорог, леопард, слон и буйвол. Это "большая пятерка" Африки. Все они находятся под угрозой вымирания. К этому привела многовековая охота колониальных хозяев. "Большая пятерка" считалась вершиной охоты, такой трофей считался символом истинного охотника.
Сегодня эти животные находятся под защитой. Начиная с середины прошлого века землевладельцы в Африке признали, что убийство животных не может происходить и дальше. Все меры по разведению животных были безрезультатны.
Мы пойдём на "охоту" в Национальный парк Крюгера "вооружившись" камерами. Вы увидите не только "большую пятёрку", но и процесс рождения антилопы импалы, спаривание леопардов и игру любопытных львят с камерой.-Диск 3: По следам белых акул (Западный мыс) / Westkap / Western Cape. Протяжённость Южно-Африканского побережья 2786 км. С запада оно омывается Атлантическим океаном, с востока - Индийским. В середине находится мыс Доброй Надежды - кладбище кораблей. В этом "повинны" два течения - со стороны Атлантики холодное Benguela, а с Индийского океана - тёплое Agulahasstrom. Эти условия создали неповторимую флору и фауну.
В этом фильме показана природа Западного мыса (недалеко от мыса Доброй Надежды). Мы увидим китов, морских львов, пингвинов, подразним и заглянем в рот белой акулы. А также мы встретимся с большой белой акулой в районе острова Дайер, известном под названием Акулья аллея.--Доп. информация: В первом файле на встроенных плейерах ТВ Самсунг могут быть артефакты внизу правого ракурса ~ 00:23:28 - 00:25:17. На других ТВ и железе должно быть всё нормально (на компе нет этого глюка).--Релиз на DVD и Blu-Ray: 24-25 апреля 2013
--Качество: BDRip (by Ash61)
Формат 3D: Anamorph OverUnder / Вертикальная анаморфная стереопара
Контейнер: MKV-Видео: AVC / 23,976 fps / 1920х1080p / (19.1 Mbps / 20.1 Mbps / 16.9 Mbps)
Аудио:
#1 - Русский / AC3 / 48 KHz / 5.1 ch / 640 Kbps (VO - BD3D)
#2 - Английский / AC3 / 48 KHz / 5.1 ch / 640 Kbps
Субтитры: Отсутствуют

MediaInfo - Диск 1

General
Unique ID : 228880465743977655985042741897344573261 (0xAC30C6364EA5B45FBE017AD22C63DF4D)
Complete name : G:\Downloads\WildlifeSouthAfrica(3D-halfOU)2011(Ash61)\WildlifeSouthAfrica1.Safari(3D-halfOU)2011(Ash61).mkv
Format : Matroska
Format version : Version 2
File size : 7.17 GiB
Duration : 49mn 27s
Overall bit rate : 20.8 Mbps
Movie name : Дикая Южная Африка 1: Сафари / Wildlife Südafrika 1: Safari (3D) 2011
Encoded date : UTC 2013-07-31 17:38:27
Writing application : mkvmerge v5.8.0 ('No Sleep / Pillow') built on Sep 2 2012 15:37:04
Writing library : libebml v1.2.3 + libmatroska v1.3.0
Video
ID : 1
Format : AVC
Format/Info : Advanced Video Codec
Format profile : High@L4.1
Format settings, CABAC : Yes
Format settings, ReFrames : 4 frames
Codec ID : V_MPEG4/ISO/AVC
Duration : 49mn 27s
Bit rate : 19.1 Mbps
Width : 1 920 pixels
Height : 1 080 pixels
Display aspect ratio : 16:9
Frame rate mode : Constant
Frame rate : 23.976 fps
Color space : YUV
Chroma subsampling : 4:2:0
Bit depth : 8 bits
Scan type : Progressive
Bits/(Pixel*Frame) : 0.383
Stream size : 6.58 GiB (92%)
Title : BDRip by Ash61
Writing library : x264 core 119 r2106 07efeb4
Encoding settings : cabac=1 / ref=4 / deblock=1:-1:-1 / analyse=0x3:0x113 / me=umh / subme=9 / psy=1 / psy_rd=1.00:0.15 / mixed_ref=1 / me_range=16 / chroma_me=1 / trellis=2 / 8x8dct=1 / cqm=0 / deadzone=21,11 / fast_pskip=1 / chroma_qp_offset=-3 / threads=3 / sliced_threads=0 / nr=0 / decimate=1 / interlaced=0 / bluray_compat=0 / constrained_intra=0 / bframes=6 / b_pyramid=2 / b_adapt=2 / b_bias=0 / direct=3 / weightb=1 / open_gop=0 / weightp=2 / keyint=250 / keyint_min=23 / scenecut=40 / intra_refresh=0 / rc_lookahead=60 / rc=crf / mbtree=1 / crf=18.0 / qcomp=0.60 / qpmin=10 / qpmax=51 / qpstep=4 / vbv_maxrate=40000 / vbv_bufsize=40000 / crf_max=0.0 / nal_hrd=none / frame-packing=4 / ip_ratio=1.40 / aq=1:0.70
Language : German
Default : Yes
Forced : No
Audio #1
ID : 2
Format : AC-3
Format/Info : Audio Coding 3
Mode extension : CM (complete main)
Format settings, Endianness : Big
Codec ID : A_AC3
Duration : 49mn 27s
Bit rate mode : Constant
Bit rate : 640 Kbps
Channel(s) : 6 channels
Channel positions : Front: L C R, Side: L R, LFE
Sampling rate : 48.0 KHz
Bit depth : 16 bits
Compression mode : Lossy
Stream size : 226 MiB (3%)
Title : Одноголосый закадровый - BD3D
Language : Russian
Default : Yes
Forced : No
Audio #2
ID : 3
Format : AC-3
Format/Info : Audio Coding 3
Mode extension : CM (complete main)
Format settings, Endianness : Big
Codec ID : A_AC3
Duration : 49mn 27s
Bit rate mode : Constant
Bit rate : 640 Kbps
Channel(s) : 6 channels
Channel positions : Front: L C R, Side: L R, LFE
Sampling rate : 48.0 KHz
Bit depth : 16 bits
Compression mode : Lossy
Stream size : 226 MiB (3%)
Language : English
Default : No
Forced : No
Menu
00:00:00.000 : :1
00:16:34.994 : :2
00:25:22.521 : :3
00:38:39.776 : :4
00:48:40.668 : :5

MediaInfo - Диск 2

General
Unique ID : 229325541019845697573697535868613577464 (0xAC867E1E11427062870DCAF2F4424AF8)
Complete name : G:\Downloads\WildlifeSouthAfrica(3D-halfOU)2011(Ash61)\WildlifeSouthAfrica2.BigFive(3D-halfOU)2011(Ash61).mkv
Format : Matroska
Format version : Version 2
File size : 7.58 GiB
Duration : 49mn 42s
Overall bit rate : 21.8 Mbps
Movie name : Дикая Южная Африка 2: Большая пятёрка / Wildlife Südafrika 2: Big Five (3D) 2011
Encoded date : UTC 2013-07-31 17:49:56
Writing application : mkvmerge v5.8.0 ('No Sleep / Pillow') built on Sep 2 2012 15:37:04
Writing library : libebml v1.2.3 + libmatroska v1.3.0
Video
ID : 1
Format : AVC
Format/Info : Advanced Video Codec
Format profile : High@L4.1
Format settings, CABAC : Yes
Format settings, ReFrames : 4 frames
Codec ID : V_MPEG4/ISO/AVC
Duration : 49mn 42s
Bit rate : 20.1 Mbps
Width : 1 920 pixels
Height : 1 080 pixels
Display aspect ratio : 16:9
Frame rate mode : Constant
Frame rate : 23.976 fps
Color space : YUV
Chroma subsampling : 4:2:0
Bit depth : 8 bits
Scan type : Progressive
Bits/(Pixel*Frame) : 0.405
Stream size : 6.99 GiB (92%)
Title : BDRip by Ash61
Writing library : x264 core 119 r2106 07efeb4
Encoding settings : cabac=1 / ref=4 / deblock=1:-3:-3 / analyse=0x3:0x113 / me=umh / subme=9 / psy=1 / psy_rd=1.00:0.15 / mixed_ref=1 / me_range=16 / chroma_me=1 / trellis=2 / 8x8dct=1 / cqm=0 / deadzone=21,11 / fast_pskip=1 / chroma_qp_offset=-3 / threads=3 / sliced_threads=0 / nr=0 / decimate=1 / interlaced=0 / bluray_compat=0 / constrained_intra=0 / bframes=6 / b_pyramid=2 / b_adapt=2 / b_bias=0 / direct=3 / weightb=1 / open_gop=0 / weightp=2 / keyint=250 / keyint_min=23 / scenecut=40 / intra_refresh=0 / rc_lookahead=60 / rc=crf / mbtree=1 / crf=18.0 / qcomp=0.60 / qpmin=10 / qpmax=51 / qpstep=4 / vbv_maxrate=40000 / vbv_bufsize=40000 / crf_max=0.0 / nal_hrd=none / frame-packing=4 / ip_ratio=1.40 / aq=1:0.70
Language : German
Default : Yes
Forced : No
Audio #1
ID : 2
Format : AC-3
Format/Info : Audio Coding 3
Mode extension : CM (complete main)
Format settings, Endianness : Big
Codec ID : A_AC3
Duration : 49mn 42s
Bit rate mode : Constant
Bit rate : 640 Kbps
Channel(s) : 6 channels
Channel positions : Front: L C R, Side: L R, LFE
Sampling rate : 48.0 KHz
Bit depth : 16 bits
Compression mode : Lossy
Stream size : 228 MiB (3%)
Title : Одноголосый закадровый - BD3D
Language : Russian
Default : Yes
Forced : No
Audio #2
ID : 3
Format : AC-3
Format/Info : Audio Coding 3
Mode extension : CM (complete main)
Format settings, Endianness : Big
Codec ID : A_AC3
Duration : 49mn 42s
Bit rate mode : Constant
Bit rate : 640 Kbps
Channel(s) : 6 channels
Channel positions : Front: L C R, Side: L R, LFE
Sampling rate : 48.0 KHz
Bit depth : 16 bits
Compression mode : Lossy
Stream size : 228 MiB (3%)
Language : English
Default : No
Forced : No
Menu
00:00:00.000 : :1
00:12:57.443 : :2
00:30:30.245 : :3
00:42:41.100 : :4
00:48:55.099 : :5

MediaInfo - Диск 3

General
Unique ID : 214589303120227260728399237118168434455 (0xA170657E900CEB2089FD44CB93748717)
Complete name : G:\Downloads\WildlifeSouthAfrica(3D-halfOU)2011(Ash61)\WildlifeSouthAfrica3.Westkap(3D-halfOU)2011(Ash61).mkv
Format : Matroska
Format version : Version 2
File size : 6.13 GiB
Duration : 47mn 18s
Overall bit rate : 18.5 Mbps
Movie name : Дикая Южная Африка 3: По следам белых акул / Wildlife Südafrika 3. Westkap (3D) 2011
Encoded date : UTC 2013-08-05 18:56:46
Writing application : mkvmerge v5.8.0 ('No Sleep / Pillow') built on Sep 2 2012 15:37:04
Writing library : libebml v1.2.3 + libmatroska v1.3.0
Video
ID : 1
Format : AVC
Format/Info : Advanced Video Codec
Format profile : High@L4.1
Format settings, CABAC : Yes
Format settings, ReFrames : 4 frames
Codec ID : V_MPEG4/ISO/AVC
Duration : 47mn 18s
Bit rate : 16.9 Mbps
Width : 1 920 pixels
Height : 1 080 pixels
Display aspect ratio : 16:9
Frame rate mode : Constant
Frame rate : 23.976 fps
Color space : YUV
Chroma subsampling : 4:2:0
Bit depth : 8 bits
Scan type : Progressive
Bits/(Pixel*Frame) : 0.340
Stream size : 5.58 GiB (91%)
Title : BDRip by Ash61
Writing library : x264 core 129 r2245 bc13772
Encoding settings : cabac=1 / ref=4 / deblock=1:-1:-1 / analyse=0x3:0x113 / me=umh / subme=9 / psy=1 / psy_rd=1.00:0.15 / mixed_ref=1 / me_range=32 / chroma_me=1 / trellis=2 / 8x8dct=1 / cqm=0 / deadzone=21,11 / fast_pskip=1 / chroma_qp_offset=-3 / threads=12 / lookahead_threads=2 / sliced_threads=0 / nr=0 / decimate=1 / interlaced=0 / bluray_compat=0 / constrained_intra=0 / bframes=9 / b_pyramid=2 / b_adapt=2 / b_bias=0 / direct=3 / weightb=1 / open_gop=0 / weightp=2 / keyint=250 / keyint_min=23 / scenecut=40 / intra_refresh=0 / rc_lookahead=60 / rc=crf / mbtree=1 / crf=18.0 / qcomp=0.70 / qpmin=10 / qpmax=69 / qpstep=4 / vbv_maxrate=40000 / vbv_bufsize=30000 / crf_max=0.0 / nal_hrd=none / frame-packing=4 / ip_ratio=1.40 / aq=1:0.70
Language : German
Default : Yes
Forced : No
Audio #1
ID : 2
Format : AC-3
Format/Info : Audio Coding 3
Mode extension : CM (complete main)
Format settings, Endianness : Big
Codec ID : A_AC3
Duration : 47mn 18s
Bit rate mode : Constant
Bit rate : 640 Kbps
Channel(s) : 6 channels
Channel positions : Front: L C R, Side: L R, LFE
Sampling rate : 48.0 KHz
Bit depth : 16 bits
Compression mode : Lossy
Stream size : 217 MiB (3%)
Title : Одноголосый закадровый - BD3D
Language : Russian
Default : Yes
Forced : No
Audio #2
ID : 3
Format : AC-3
Format/Info : Audio Coding 3
Mode extension : CM (complete main)
Format settings, Endianness : Big
Codec ID : A_AC3
Duration : 47mn 18s
Bit rate mode : Constant
Bit rate : 640 Kbps
Channel(s) : 6 channels
Channel positions : Front: L C R, Side: L R, LFE
Sampling rate : 48.0 KHz
Bit depth : 16 bits
Compression mode : Lossy
Stream size : 217 MiB (3%)
Language : English
Default : No
Forced : No
Menu
00:00:00.000 : :1
00:04:34.232 : :2
00:13:56.961 : :3
00:32:20.397 : :4
00:46:20.569 : :5

Скриншоты - Диск 1

Скриншоты - Диск 2

Скриншоты - Диск 3

Для оценки 3д - Анимированные скрины



























5.08.2013 - исправлена третья часть (добавлены недостающие три минуты концовки).
Желающие, скачайте заново торрент-файл.
Кто хочет продолжить сидировать, скачайте заново торрент-файл. У вас перекачается только третья часть, а первая и вторая - перехешируются (если вы их не переместили или не переименовали).
Прошу прощения за неудобства!
Благодарности релизеру (25)

Торрент:

Статус:

Размер:

Зарегистрирован   [ 2013-08-05 23:50 ]

проверено

20.88 GB

 
 Мнение о фильме (7)





Спасибо за фильм!
Об самом фильме, меня не оставляет ощущение, что это всё же конвертация 2D в 3D - изображения животных и деревьев какие-то плоские, хотя и находятся на разном удалении от экрана.
 

Нет, rrom77, не конвертация. New KSM снимает все фильмы на две камеры. Документалки гораздо дешевле снять на две камеры, чем вручную конвертить.
 

Возможно дело в оптике камер, при съёмке далёких объектов. Нето похожее можно наблюдать если смотреть в бинокль, при сильном приближении, там то-же всё кажется плоским.
 

rrom77, вот про бинокль вы очень точно подметили! В стереоскопии всё очень сложно (геометрически). Одну и ту же пару объектов можно снять с близкого расстояния (с заметной разницей разноудалённости), а можно и с далёкого (с такой же заметностью разноудалённости). Но разница будет, как раз, в заметности объёмности каждого объекта. Говорю это чисто теоретически, по своим логическим размышлениям (поскольку не являюсь практиком). :)
 

3D впечетляет,виды просто супер.Всё ярко и красочно.Давно ждал перевода - без него фильм теряет стиль.Спасибо за русскую аудиодорогу
 

Глубина у кино замечательная! Спасибо, наконец то с русским переводом!
 

хорошо, во всех смыслах