Торренты   
 
 

 

Путешествие 2: Таинственный остров 3D / Journey 2: The Mysterious Island 3D (Брэд Пейтон / Brad Peyton) [2012, BDrip, 1080p, Anaglyph, red'cyan (RAV)]

Рейтинг 3D:
10 голосов
9.1
Рейтинг фильма:
10 голосов
8.9
 
Вы должны быть авторизированы,
чтобы ставить оценки


Путешествие 2: Таинственный остров 3D / Journey 2: The Mysterious Island 3D
Год выпуска: 2012
Страна: США
Студия: Warner Bros
Жанр: фантастика, фэнтези, боевик, комедия, приключения
Продолжительность: 01:34:11
Перевод: Профессиональный (дублированный)
Русские субтитры: есть
Режиссер на русском: Брэд Пейтон
Режиссер на английском: Brad Peyton
В ролях: Дуэйн Джонсон, Майкл Кейн, Джош Хатчерсон, Ванесса Энн Хадженс, Луис Гузман, Кристин Дэвис, Анна Колвелл, Стивен Кодилл, Брэнском Ричмонд, Уолтер Бэнксон
Описание: На этот раз Шон Андерсон получает закодированный сигнал с просьбой о помощи, причем с загадочного острова, из места, где никакого острова и быть не может. Там обитают странные формы жизни, скрываются горы золота, смертоносные вулканы и не одна ошеломляющая тайна. Отчиму Шона, не сумевшему остановить его, ничего не остается, как тоже присоединиться к поискам. Вместе с пилотом вертолета и его прекрасной и решительной дочерью им предстоит найти остров, спасти его одинокого обитателя и немедленно покинуть это место, прежде чем землетрясение скроет остров под водой и похоронит навеки его сокровища ...
Качество: BDrip
Контейнер: MKV
Формат 3d: Anaglyph (RAV)
Цвета очков:

Порядок ракурсов: левый ракурс первый
Видео: V_MPEG4/ISO/AVC, 1920х1080, 17.5 Mbps, 23.976 fps
Аудио: Русский / Дублированный, AC-3, 6 channels, 48.0 KHz, 640 Kbps
Аудио 2: English / Original, AC-3, 6 channels, 48.0 KHz, 640 Kbps
Субтитры: Русские, Английские

MediaInfo

General
Format : Matroska
Format version : Version 2
File size : 12.6 GiB
Duration : 1h 34mn
Overall bit rate : 19.2 Mbps
Movie name : Journey 2: The Mysterious Island by 3D-RuGroup
Encoded date : UTC 2012-06-08 15:41:56
Writing application : mkvmerge v4.4.0 ('Die Wiederkehr') сборка от Oct 31 2010 21:52:48
Writing library : libebml v1.0.0 + libmatroska v1.0.0
Video
ID : 1
Format : AVC
Format/Info : Advanced Video Codec
Format profile : High@L4.0
Format settings, CABAC : Yes
Format settings, ReFrames : 4 frames
Codec ID : V_MPEG4/ISO/AVC
Duration : 1h 34mn
Bit rate : 17.5 Mbps
Width : 1 920 pixels
Height : 1 080 pixels
Display aspect ratio : 16:9
Frame rate : 23.976 fps
Color space : YUV
Chroma subsampling : 4:2:0
Bit depth : 8 bits
Scan type : Progressive
Bits/(Pixel*Frame) : 0.353
Stream size : 11.5 GiB (91%)
Title : RAV-Anaglyph from Boss-Master
Writing library : x264 core 115 r1995 c1e60b9
Encoding settings : cabac=1 / ref=4 / deblock=1:-2:-2 / analyse=0x3:0x113 / me=umh / subme=9 / psy=1 / psy_rd=1.00:0.15 / mixed_ref=1 / me_range=16 / chroma_me=1 / trellis=2 / 8x8dct=1 / cqm=0 / deadzone=21,11 / fast_pskip=1 / chroma_qp_offset=-3 / threads=6 / sliced_threads=0 / nr=0 / decimate=1 / interlaced=0 / bluray_compat=0 / constrained_intra=0 / bframes=6 / b_pyramid=0 / b_adapt=2 / b_bias=0 / direct=3 / weightb=1 / open_gop=0 / weightp=2 / keyint=250 / keyint_min=23 / scenecut=40 / intra_refresh=0 / rc_lookahead=40 / rc=crf / mbtree=1 / crf=18.0 / qcomp=0.60 / qpmin=10 / qpmax=69 / qpstep=4 / ip_ratio=1.40 / aq=1:1.00
Default : Yes
Forced : No
Audio #1
ID : 2
Format : AC-3
Format/Info : Audio Coding 3
Mode extension : CM (complete main)
Codec ID : A_AC3
Duration : 1h 34mn
Bit rate mode : Constant
Bit rate : 640 Kbps
Channel(s) : 6 channels
Channel positions : Front: L C R, Side: L R, LFE
Sampling rate : 48.0 KHz
Bit depth : 16 bits
Compression mode : Lossy
Stream size : 431 MiB (3%)
Title : Dub
Language : Russian
Default : Yes
Forced : No
Audio #2
ID : 3
Format : AC-3
Format/Info : Audio Coding 3
Mode extension : CM (complete main)
Codec ID : A_AC3
Duration : 1h 34mn
Bit rate mode : Constant
Bit rate : 640 Kbps
Channel(s) : 6 channels
Channel positions : Front: L C R, Side: L R, LFE
Sampling rate : 48.0 KHz
Bit depth : 16 bits
Compression mode : Lossy
Stream size : 431 MiB (3%)
Title : original
Language : English
Default : No
Forced : No
Text #1
ID : 4
Format : UTF-8
Codec ID : S_TEXT/UTF8
Codec ID/Info : UTF-8 Plain Text
Title : Forced
Language : Russian
Default : No
Forced : No
Text #2
ID : 5
Format : UTF-8
Codec ID : S_TEXT/UTF8
Codec ID/Info : UTF-8 Plain Text
Title : Full
Language : Russian
Default : No
Forced : No
Text #3
ID : 6
Format : UTF-8
Codec ID : S_TEXT/UTF8
Codec ID/Info : UTF-8 Plain Text
Title : Full
Language : English
Default : No
Forced : No
Menu
00:00:00.000 : en:Chapter 01
00:10:52.401 : en:Chapter 02
00:19:13.277 : en:Chapter 03
00:30:06.805 : en:Chapter 04
00:39:21.442 : en:Chapter 05
00:49:58.662 : en:Chapter 06
00:59:03.456 : en:Chapter 07
01:09:11.772 : en:Chapter 08
01:19:27.095 : en:Chapter 09
01:26:03.491 : en:Chapter 10

Скриншоты

Благодарности релизеру (3)

Торрент:

Статус:

Размер:

Зарегистрирован   [ 2012-06-08 20:45 ]

проверено

12.64 GB

 
 Мнение о фильме (1)





Отлично! Хорошее качество, да и фильм не плохой.