Торренты   
 
 

 

Коралловый риф - Том 3: Охотники и добыча / Faszination Korallenriff 3D - Vol.3 (Беньямин Краузе / Benjamin Krause) [2011 г., Anamorph OverUnder]

Рейтинг 3D:
4 голосов
9.2
Рейтинг фильма:
3 голосов
9.0
 
Вы должны быть авторизированы,
чтобы ставить оценки


Коралловый риф - Том 3: Охотники и добыча
Faszination Korallenriff 3D - Vol.3: Jäger & Gejagte
Fascination Coral Reef - Vol.3: Hunters & the Hunted

Год выпуска: 2011
Страна: Германия (New KSM)
Жанр: Документальный, Видовой
Продолжительность: 00:52:49
Перевод: Отсутствует
Продюсер: Беньямин Краузе / Benjamin Krause
Музыка: Paul Welch
Описание: В третьем томе основное внимание уделено "охотникам": муренам, акулам и скатам. Многие эпизоды сняты с небывало близкого расстояния до этих хищников (вплоть до физического контакта).-- --Качество: BDrip
Контейнер: MKV
Формат 3D: Anamorph OverUnder/Вертикальная анаморфная стереопара
Порядок ракурсов: левый ракурс первый
Видео кодек: h.264
Аудио кодек: AC3
Видео: AVC / 1920х1080p / 23,976 fps / 17,7 Mbps
Аудио: Английский/ AC3 / 48 KHz / 5.1 ch / 640 Kbps
Субтитры: Отсутствуют

Скриншоты




MediaInfo

Общее
Уникальный идентификатор : 196284909385337327047383646184324119140 (0x93AB1934C876DC6EA395AF6E3ACEBA64)
Полное имя : E:\кино\FaszinationKorallenriffVol3(3D)2011.1080p.halfOU (m@rik05).mkv
Формат : Matroska
Версия формата : Version 2
Размер файла : 6,90 Гбайт
Продолжительность : 52 м.
Общий поток : 18,7 Мбит/сек
Название фильма : FaszinationKorallenriffVol3(3D)2011
Дата кодирования : UTC 2012-06-14 19:06:55
Программа кодирования : mkvmerge v3.4.0 ('Rapunzel') сборка от May 15 2010 09:38:20
Библиотека кодирования : libebml v0.8.0 + libmatroska v0.9.0
Видео
Идентификатор : 1
Формат : AVC
Формат/Информация : Advanced Video Codec
Профиль формата : High@L4.1
Параметр CABAC формата : Да
Параметр ReFrames формата : 4 кадра
Идентификатор кодека : V_MPEG4/ISO/AVC
Продолжительность : 52 м.
Битрейт : 17,7 Мбит/сек
Ширина : 1920 пикселей
Высота : 1080 пикселей
Соотношение сторон : 16:9
Частота кадров : 23,976 кадра/сек
Цветовое пространство : YUV
Субдискретизация насыщенности : 4:2:0
Битовая глубина : 8 бит
Тип развёртки : Прогрессивная
Бит/(Пиксели*Кадры) : 0.356
Размер потока : 6,52 Гбайт (95%)
Заголовок : rip by m@rik05
Библиотека кодирования : x264 core 120 r2164 da19765
Настройки программы : cabac=1 / ref=4 / deblock=1:-3:-3 / analyse=0x3:0x133 / me=umh / subme=9 / psy=1 / psy_rd=1.00:0.15 / mixed_ref=1 / me_range=16 / chroma_me=1 / trellis=2 / 8x8dct=1 / cqm=0 / deadzone=21,11 / fast_pskip=1 / chroma_qp_offset=-3 / threads=6 / sliced_threads=0 / nr=0 / decimate=1 / interlaced=0 / bluray_compat=0 / constrained_intra=0 / bframes=6 / b_pyramid=2 / b_adapt=2 / b_bias=0 / direct=3 / weightb=1 / open_gop=0 / weightp=2 / keyint=250 / keyint_min=23 / scenecut=40 / intra_refresh=0 / rc_lookahead=60 / rc=crf / mbtree=1 / crf=18.0 / qcomp=0.70 / qpmin=0 / qpmax=69 / qpstep=4 / vbv_maxrate=40000 / vbv_bufsize=40000 / crf_max=0.0 / nal_hrd=none / frame-packing=4 / ip_ratio=1.40 / aq=1:0.80
Язык : English
Default : Да
Forced : Нет
Аудио
Идентификатор : 2
Формат : AC-3
Формат/Информация : Audio Coding 3
Расширение режима : CM (complete main)
Параметр Endianness формата : Big
Идентификатор кодека : A_AC3
Продолжительность : 52 м.
Вид битрейта : Постоянный
Битрейт : 640 Кбит/сек
Каналы : 6 каналов
Расположение каналов : Front: L C R, Side: L R, LFE
Частота : 48,0 КГц
Битовая глубина : 16 бит
Метод сжатия : С потерями
Размер потока : 242 Мбайт (3%)
Заголовок : original
Язык : English
Default : Да
Forced : Да
Меню
00:00:00.000 : en:00:00:00.000
00:11:23.016 : en:00:11:23.016
00:25:07.589 : en:00:25:07.589
00:37:01.469 : en:00:37:01.469
00:52:28.604 : en:00:52:28.604
Благодарности релизеру (6)

Торрент:

Статус:

Размер:

Зарегистрирован   [ 2012-06-15 02:05 ]

проверено

6.9 GB