Торренты   
 
 


Между 3Д / Twixt 3d (Френсис Форд Коппола) [2011 г., Anamorph OverUnder]

Рейтинг 3D:
4 голосов
5.2
Рейтинг фильма:
4 голосов
5.2
 
Вы должны быть авторизированы,
чтобы ставить оценки


Между 3Д / Twixt 3d
Год выпуска: 2011
Страна: США
Жанр: ужасы, фэнтези, триллер
Продолжительность: 01:28:07
Перевод: Профессиональный (полное дублирование)
Режиссер: Френсис Форд Коппола
В ролях: Вэл Килмер, Брюс Дерн, Эль Фаннинг, Бен Чаплин, Энтони Фуско, Олден Эйренрайк, Дэвид Пэймер, Джоэнн Уэлли, Дон Новелло, Райан Симпкинс
Описание: Потерявший вдохновение писатель приезжает в захолустный городок, где пытается разгадать серию загадочных убийств. Во сне ему с завидным упорством является призрак окровавленной девочки Ви, которая пытается сообщить ему страшную тайну. Возможно, распутав цепь странных событий, писатель сможет, наконец, преодолеть кризис и создать новую книгу - о вампирах, потустороннем мире и легендарном Эдгаре Аллане По.
«Он отведёт тебя в мир духов и вампиров»
Доп. информация: Реально в фильме всего около 8-9 минут в 3D.

Субтитры:есть
Перевод: Дублированный
Контейнер: mkv
Формат аудио: AC3
Формат видео: x264
Качество видео: BDrip
Размер видео: 1920×1080
Формат 3d: Anamorph OverUnder
Видео: MPEG-4 AVC. 7 180 Kbps, 1920x1080, 23.976 fps

Скриншоты




MediaInfo

General
Complete name : D:\скачка\torrent\TWIXT\TWIXT.edis.3d-tracker.ru .mkv
Format : Matroska
File size : 4.79 GiB
Duration : 1h 28mn
Overall bit rate : 7 783 Kbps
Movie name : TWIXT.edis.3d-tracker.ru.Bluray3DRip
Encoded date : UTC 2012-06-09 03:00:46
Writing application : mkvmerge v4.2.0 ('3d-tracker') сборка от Jul 28 2010 18:38:23
Writing library : libebml v1.0.0 + libmatroska v1.0.0
Video
ID : 1
Format : AVC
Format/Info : Advanced Video Codec
Format profile : High@L4.1
Format settings, CABAC : Yes
Format settings, ReFrames : 2 frames
Muxing mode : Container profile=Unknown@4.1
Codec ID : V_MPEG4/ISO/AVC
Duration : 1h 28mn
Bit rate : 7 180 Kbps
Width : 1 920 pixels
Height : 1 080 pixels
Display aspect ratio : 16:9
Frame rate : 23.976 fps
Resolution : 24 bits
Colorimetry : 4:2:0
Scan type : Progressive
Bits/(Pixel*Frame) : 0.144
Stream size : 4.41 GiB (92%)
Title : edis.3d-tracker.ru
Writing library : x264 core
Audio
ID : 2
Format : AC-3
Format/Info : Audio Coding 3
Codec ID : A_AC3
Duration : 1h 28mn
Bit rate mode : Constant
Bit rate : 448 Kbps
Channel(s) : 6 channels
Channel positions : Front: L C R, Surround: L R, LFE
Sampling rate : 48.0 KHz
Stream size : 282 MiB (6%)
Title : edis.3d-tracker.ru
Language : Russian
Menu
00:00:00.000 : en:(01)00:00:00:000
00:04:37.485 : en:(02)00:04:37:485
00:09:15.805 : en:(03)00:09:15:805
00:13:53.833 : en:(04)00:13:53:833
00:18:32.152 : en:(05)00:18:32:152
00:23:10.764 : en:(06)00:23:10:764
00:27:49.209 : en:(07)00:27:49:209
00:32:27.070 : en:(08)00:32:27:070
00:37:04.805 : en:(09)00:37:04:805
00:41:43.209 : en:(10)00:41:43:209
00:46:21.528 : en:(11)00:46:21:528
00:50:59.639 : en:(12)00:50:59:639
00:55:38.084 : en:(13)00:55:38:084
01:00:16.487 : en:(14)01:00:16:487
01:04:54.098 : en:(15)01:04:54:098
01:09:33.210 : en:(16)01:09:33:210
01:14:10.571 : en:(17)01:14:10:571
01:18:49.182 : en:(18)01:18:49:182
01:28:07.073 : en:(19)01:28:07:073
Благодарности релизеру (3)

Торрент:

Статус:

Размер:

Зарегистрирован   [ 2012-06-17 11:15 ]

* не проверено

4.79 GB