Торренты   
 
 

 

Тарбозавр 3D / Jeombaki: Hanbandoeui Gongryong 3D (Сань-хо Хань) [2011 г., Anaglyph, red'cyan]

Рейтинг 3D:
1 голосов
3.0
Рейтинг фильма:
1 голосов
2.0
 
Вы должны быть авторизированы,
чтобы ставить оценки


Тарбозавр 3D / Jeombaki: Hanbandoeui Gongryong 3D
Год выпуска: 2011
Страна: Корея Южная
Жанр: Мультфильм, приключения
Продолжительность: 01:28:39
Перевод: Профессиональный (полное дублирование)
Режиссер: Сань-хо Хань
Описание: 70 миллионов лет назад динозавры владели миром. В бескрайних лесах обитало бесчисленное множество разновидностей этих удивительных животных. Самый молодой из семьи Тарбозавров, игривый и любопытный малыш по имени Пятнистый, с нетерпением ждет, когда же старшие собратья возьмут его на охоту, чтобы преподать первые уроки взрослой жизни. Но когда наступает этот долгожданный день, на стадо тарбозавров нападает жуткий тираннозавр Одноглазый. Потерявшись, Пятнистый встречается с другим динозавриком, отбившимся от родных, — Синеглазкой. Отныне малышам предстоит вместе сражаться за жизнь. Впереди друзей ждут долгие годы, наполненные любовью, страхом, печалью и радостью, счастьем и надеждой.
Формат 3d: Anaglyph
Цвета очков:

Видео: AVC / 1920x1080p / 9031 Kbps / 23.976 fps
Аудио: Русский / AC3 / 6 channels / 48.0 KHz / 640 Kbps

MediaInfo

General
Unique ID : 222786145371617036530990905649617363560 (0xA79B0D04EFD60D3A9F650E738FE6E268)
Complete name : J:\Фильмы\3Д\Тарбозавр. 3D.anaglif.mkv
Format : Matroska
Format version : Version 2
File size : 6.11 GiB
Duration : 1h 28mn
Overall bit rate : 9 868 Kbps
Encoded date : UTC 2012-06-17 10:48:09
Writing application : mkvmerge v3.4.0 ('Rapunzel') сборка от May 15 2010 09:38:20
Writing library : libebml v0.8.0 + libmatroska v0.9.0
Video
ID : 1
Format : AVC
Format/Info : Advanced Video Codec
Format profile : High@L4.1
Format settings, CABAC : Yes
Format settings, ReFrames : 4 frames
Codec ID : V_MPEG4/ISO/AVC
Duration : 1h 28mn
Bit rate : 9 031 Kbps
Width : 1 920 pixels
Height : 1 080 pixels
Display aspect ratio : 16:9
Frame rate : 23.976 fps
Color space : YUV
Chroma subsampling : 4:2:0
Bit depth : 8 bits
Scan type : Progressive
Bits/(Pixel*Frame) : 0.182
Stream size : 5.59 GiB (92%)
Writing library : x264 core 125 r2200 999b753
Encoding settings : cabac=1 / ref=4 / deblock=1:-1:-1 / analyse=0x3:0x113 / me=hex / subme=7 / psy=1 / psy_rd=1.00:0.15 / mixed_ref=1 / me_range=16 / chroma_me=1 / trellis=2 / 8x8dct=1 / cqm=0 / deadzone=21,11 / fast_pskip=1 / chroma_qp_offset=-3 / threads=9 / lookahead_threads=1 / sliced_threads=0 / nr=0 / decimate=1 / interlaced=0 / bluray_compat=0 / constrained_intra=0 / bframes=6 / b_pyramid=2 / b_adapt=1 / b_bias=0 / direct=1 / weightb=1 / open_gop=0 / weightp=2 / keyint=250 / keyint_min=23 / scenecut=40 / intra_refresh=0 / rc_lookahead=60 / rc=crf / mbtree=1 / crf=18.0 / qcomp=0.60 / qpmin=0 / qpmax=69 / qpstep=4 / ip_ratio=1.40 / aq=1:1.00
Language : English
Default : No
Forced : No
Audio
ID : 2
Format : AC-3
Format/Info : Audio Coding 3
Mode extension : CM (complete main)
Format settings, Endianness : Big
Codec ID : A_AC3
Duration : 1h 28mn
Bit rate mode : Constant
Bit rate : 640 Kbps
Channel(s) : 6 channels
Channel positions : Front: L C R, Side: L R, LFE
Sampling rate : 48.0 KHz
Bit depth : 16 bits
Compression mode : Lossy
Stream size : 406 MiB (6%)
Language : Russian
Default : Yes
Forced : No

Скриншоты


Благодарности релизеру (0)

Торрент:

Статус:

Размер:

Зарегистрирован   [ 2012-06-18 00:31 ]

проверено

6.11 GB