Торренты   
 
 


Гнев Титанов 3D/ Wrath of the Titans 3D (Джонатан Либесман / Jonathan Liebesman) [2012 г.Rus+Ukr (BD CEE), Anamorph OverUnder

Рейтинг 3D:
56 голосов
6.6
Рейтинг фильма:
52 голосов
6.9
 
Вы должны быть авторизированы,
чтобы ставить оценки



Гнев Титанов 3D/ Wrath of the Titans 3D
Год выпуска: 2012
Страна: США(Warner Bros. Pictures, Legendary Pictures)
Жанр: Фэнтези, Боевик, Приключения
Продолжительность: 01:39:39
Перевод:Профессиональный дублированный (Русский и Украинский)
Режиссер на русском: Джонатан Либесман
Режиссер на английском: Jonathan Liebesman
Роли исполняли (Дублировали):
Персей - Сэм Уортингтон / Сергей Бурунов
Андромеда - Розамунд Пайк / Татьяна Шитова
Зевс - Лиам Нисон / Алексей Рязанцев
Аид - Рэйф Файнс / Владимир Зайцев
Арес - Эдгар Рамирез / Даниил Эльдаров
Агенор - Тоби Кеббелл / Сергей Смирнов
Гефест - Билл Найи / Леонид Белозорович
Посейдон - Дэнни Хьюстон
Элей - Джон Белл
Аполлон - Фредди Дреббл
Афина - Кэтрин Карпентер
Коррина - Лили Джеймс / Анастасия Нестеренко
Описание:

Прошло десять лет после того, как Персей победил морское чудовище - Кракена, теперь он живет спокойной жизнью деревенского рыбака и воспитывает своего 10-летнего сына.
Тем временем, бушует борьба за превосходство между Богами и Титанами. Опасно ослабленные нехваткой человеческой любви и преданности, Боги теряют контроль над заключенными в тюрьму Титанами и их свирепым лидером, Кроносом, отцом правящих братьев Зевса, Аида и Посейдона. Давным-давно триумвират сверг своего сильного отца, отправив его гнить в мрачную пропасть Тартар, темницу, находящуюся в глубинах подземного мира.
Персей не может остаться в стороне, когда Аид вместе с сыном Зевса, Аресом, заключают сделку с Кроносом, чтобы вместе уничтожить Зевса. Сила Титанов становится ещё больше, в то время как Зевс теряет свою мощь и власть, а по Земле раскидывается ад подземного мира.
Вместе с Андромедой, полубогом Агенором, сыном Посейдона и низвергнутым богом Гефестом, Персей отправляется в опасное и отважное путешествие в подземный мир, чтобы спасти Зевса, свергнуть Титанов и сохранить людской род.
-- --Качество: BDrip
Контейнер: MKV
Формат 3D: Anamorph OverUnder/Вертикальная анаморфная стереопара
Порядок ракурсов: левый ракурс первый
Видео кодек: x264
Аудио кодек: AC3
Видео: AVC / 1920х1080p / 23.976 fps / 17,7 Mbps
Аудио 1: Русский / AC3 / 48.0 KHz / 5.1 ch / 448 Kbps (BD CEE)
Аудио 2: Русский / AC3 / 48.0 KHz / 5.1ch / 448 Kbps - Одноголосый закадровый (Zamez)
Аудио 3: Украинский / AC3 / 48.0 KHz / 5.1 ch / 448 Kbps (BD CEE)
Аудио 4: Английский /AC3 / 48.0 KHz / 5.1 ch /640 Kbps
Субтитры (Вшитые softsub SRT):
#1- Русские Полные (BD CEE)
#2- Русские Полные (voronine)
#3- English Full
#4- English SDH

MediaInfo

Общее
Уникальный идентификатор : 200001576337256057195362799321405833129 (0x9676E708E16E972C944E745EFFF1BFA9)
Полное имя : E:\кино\WrathOfTheTitans(3D)2012.halfOU(m@rik05).mkv
Формат : Matroska
Версия формата : Version 2
Размер файла : 14,0 Гбайт
Продолжительность : 1 ч. 39 м.
Общий поток : 20,1 Мбит/сек
Название фильма : WrathOfTheTitans(3D) rip by m@rik05
Дата кодирования : UTC 2012-07-09 19:13:11
Программа кодирования : mkvmerge v3.4.0 ('Rapunzel') сборка от May 15 2010 09:38:20
Библиотека кодирования : libebml v0.8.0 + libmatroska v0.9.0
Видео
Идентификатор : 1
Формат : AVC
Формат/Информация : Advanced Video Codec
Профиль формата : High@L4.1
Параметр CABAC формата : Да
Параметр ReFrames формата : 4 кадра
Идентификатор кодека : V_MPEG4/ISO/AVC
Продолжительность : 1 ч. 39 м.
Битрейт : 17,7 Мбит/сек
Ширина : 1920 пикселей
Высота : 1080 пикселей
Соотношение сторон : 16:9
Частота кадров : 23,976 кадра/сек
Цветовое пространство : YUV
Субдискретизация насыщенности : 4:2:0
Битовая глубина : 8 бит
Тип развёртки : Прогрессивная
Бит/(Пиксели*Кадры) : 0.355
Размер потока : 12,3 Гбайт (88%)
Заголовок : Gnev.Titanov.2012
Библиотека кодирования : x264 core 120 r2164 da19765
Настройки программы : cabac=1 / ref=4 / deblock=1:-3:-3 / analyse=0x3:0x133 / me=umh / subme=9 / psy=1 / psy_rd=1.00:0.15 / mixed_ref=1 / me_range=16 / chroma_me=1 / trellis=2 / 8x8dct=1 / cqm=0 / deadzone=21,11 / fast_pskip=1 / chroma_qp_offset=-3 / threads=6 / sliced_threads=0 / nr=0 / decimate=1 / interlaced=0 / bluray_compat=0 / constrained_intra=0 / bframes=6 / b_pyramid=2 / b_adapt=2 / b_bias=0 / direct=3 / weightb=1 / open_gop=0 / weightp=2 / keyint=250 / keyint_min=23 / scenecut=40 / intra_refresh=0 / rc_lookahead=60 / rc=crf / mbtree=1 / crf=18.0 / qcomp=0.70 / qpmin=0 / qpmax=69 / qpstep=4 / vbv_maxrate=40000 / vbv_bufsize=40000 / crf_max=0.0 / nal_hrd=none / ip_ratio=1.40 / aq=1:0.80
Язык : English
Default : Да
Forced : Нет
Аудио #1
Идентификатор : 2
Формат : AC-3
Формат/Информация : Audio Coding 3
Расширение режима : CM (complete main)
Параметр Endianness формата : Big
Идентификатор кодека : A_AC3
Продолжительность : 1 ч. 39 м.
Вид битрейта : Постоянный
Битрейт : 448 Кбит/сек
Каналы : 6 каналов
Расположение каналов : Front: L C R, Side: L R, LFE
Частота : 48,0 КГц
Битовая глубина : 16 бит
Метод сжатия : С потерями
Размер потока : 319 Мбайт (2%)
Заголовок : DUB
Язык : Russian
Default : Да
Forced : Да
Аудио #2
Идентификатор : 3
Формат : AC-3
Формат/Информация : Audio Coding 3
Расширение режима : CM (complete main)
Параметр Endianness формата : Big
Идентификатор кодека : A_AC3
Продолжительность : 1 ч. 39 м.
Вид битрейта : Постоянный
Битрейт : 448 Кбит/сек
Каналы : 6 каналов
Расположение каналов : Front: L C R, Side: L R, LFE
Частота : 48,0 КГц
Битовая глубина : 16 бит
Метод сжатия : С потерями
Размер потока : 319 Мбайт (2%)
Заголовок : Zamez (avo) одноголосый закадровый
Язык : Russian
Default : Нет
Forced : Нет
Аудио #3
Идентификатор : 4
Формат : AC-3
Формат/Информация : Audio Coding 3
Расширение режима : CM (complete main)
Параметр Endianness формата : Big
Идентификатор кодека : A_AC3
Продолжительность : 1 ч. 39 м.
Вид битрейта : Постоянный
Битрейт : 448 Кбит/сек
Каналы : 6 каналов
Расположение каналов : Front: L C R, Side: L R, LFE
Частота : 48,0 КГц
Битовая глубина : 16 бит
Метод сжатия : С потерями
Размер потока : 319 Мбайт (2%)
Заголовок : UKR
Язык : Ukrainian
Default : Нет
Forced : Нет
Аудио #4
Идентификатор : 5
Формат : AC-3
Формат/Информация : Audio Coding 3
Расширение режима : CM (complete main)
Параметр Endianness формата : Big
Идентификатор кодека : A_AC3
Продолжительность : 1 ч. 39 м.
Вид битрейта : Постоянный
Битрейт : 640 Кбит/сек
Каналы : 6 каналов
Расположение каналов : Front: L C R, Side: L R, LFE
Частота : 48,0 КГц
Битовая глубина : 16 бит
Метод сжатия : С потерями
Размер потока : 456 Мбайт (3%)
Заголовок : Original
Язык : English
Default : Нет
Forced : Нет
Текст #1
Идентификатор : 6
Формат : UTF-8
Идентификатор кодека : S_TEXT/UTF8
Идентификатор кодека/Информация : UTF-8 Plain Text
Заголовок : RUS.BD
Язык : Russian
Default : Нет
Forced : Нет
Текст #2
Идентификатор : 7
Формат : UTF-8
Идентификатор кодека : S_TEXT/UTF8
Идентификатор кодека/Информация : UTF-8 Plain Text
Заголовок : voronine
Язык : Russian
Default : Нет
Forced : Нет
Текст #3
Идентификатор : 8
Формат : UTF-8
Идентификатор кодека : S_TEXT/UTF8
Идентификатор кодека/Информация : UTF-8 Plain Text
Заголовок : English
Язык : English
Default : Нет
Forced : Нет
Текст #4
Идентификатор : 9
Формат : UTF-8
Идентификатор кодека : S_TEXT/UTF8
Идентификатор кодека/Информация : UTF-8 Plain Text
Заголовок : ENG.SDH
Язык : English
Default : Нет
Forced : Нет
Меню
00:00:00.000 : en:00:00:00.000
00:09:25.440 : en:00:09:25.440
00:20:08.332 : en:00:20:08.332
00:30:54.895 : en:00:30:54.895
00:40:04.736 : en:00:40:04.736
00:48:49.802 : en:00:48:49.802
01:00:25.372 : en:01:00:25.372
01:10:20.633 : en:01:10:20.633
01:19:23.467 : en:01:19:23.467
01:30:39.225 : en:01:30:39.225

Скриншоты

9.07.2012 - Релиз обновлён - русская дорога обновлена на дорогу с (BD CEE)+ аналогичная украинская. Скачайте заново торрент-файл.
Остальные раздачи этого фильма (3)
Благодарности релизеру (66)

Торрент:

Статус:

Размер:

Зарегистрирован   [ 2012-07-09 23:55 ]

проверено

13.96 GB