Торренты   
 
 


Джок / Jock [2011, BDrip, half1080p, Anamorph OverUnder]

Рейтинг 3D:
Пока никто не голосовал
Рейтинг фильма:
Пока никто не голосовал
 
Вы должны быть авторизированы,
чтобы ставить оценки


Джок / Jock
Год выпуска: 2011
Страна: США, ЮАР (Jock Animation)
Жанр: Мультфильм, Приключения, Семейный
Продолжительность: 01:19:42
Перевод: Профессиональный (полное дублирование)
Режиссер: Дункан МакНили / Duncan MacNeillie-Роли озвучивали (на английском): Джок - Брайан Адамс
Ботмэн - Уильям Болдуин
Пезулу - Тед Дэнсон
Сидлинг - Роберт Хоббс
Джесс - Хелен Хант
Фитц - Тео Ланди
Бэзил - Мэнди Пэтинкин
Мистер Моррис - Майкл Ричардс
Полли - Сильвен Страйк
Рассказчик - Дональд Сазерленд
Баба - Десмонд Туту (архиепископ)
Джордж - Энтони Бишоп
Джулиен - Роуз Эмануэл
Маленький Паппи - Ким Харт
Джок (маленький) - Макензи Харт
Снарли - Джейсон Кеннетт
Клод - Де Пинна Майкл
Джим - Bongani Nxumalo-Описание: История приключений очаровательного и бесстрашного щенка по кличке Джок - самого младшего и, как оказалось, самого слабого среди своих сестер и братьев. Его ждут удивительные приключения и невероятные испытания. Друзья героя - веселая мартышка Бэзил, находчивый петушок Пезулу и красотка Полли, будут рядом, они команда. Но каков будет их путь? И победит ли Джок коварного врага Бешеного Джорджа в решающей схватке? Пройдя через сложные ситуации и получив непростые жизненные уроки, беспородный щенок становится верным товарищем, отважным искателем приключений, воплощением силы и мужества, веры в себя.-Доп. информация: Графика простенькая, глубина 3д хорошая. Фильм добрый, а значит полезный.--Премьера: 29 июля 2011 (22 марта 2012)
Проверено на встроенном плейере ТВ Samsung UE-C7000--Формат 3d: Anamorph OverUnder
Качество: BDrip
Контейнер: MKV-Видео: AVC / 23,976 fps / 1920х1080p / 9084 Kbps
Аудио:
#1 - Русский / AC3 / 48 KHz / 5.1 ch / 640 Kbps
#2 - Английский / AC3 / 48 KHz / 5.1 ch / 448 Kbps (насколько я понял, реально дорога в моно, видимо "line")
Субтитры: (Вшитые softsub SRT) English Full

MediaInfo

General
UniqueID : 237611419054945920170967237934303295440 (0xB2C24B7206485187B1AB9B4907D637D0)
Complete name : F:\Downloads\Jock(3D)2011.halfOU(Ash61).mkv
Format : Matroska
File size : 5.78 GiB
Duration : 1h 19mn
Overall bit rate : 10.4 Mbps
Movie name : Jock (3D) 2011 (by Ash61)
Encoded date : UTC 2012-06-19 09:11:13
Writing application : mkvmerge v3.4.0 ('Rapunzel') сборка от May 15 2010 09:38:20
Writing library : libebml v0.8.0 + libmatroska v0.9.0
Video
ID : 1
Format : AVC
Format/Info : Advanced Video Codec
Format profile : High@L4.1
Format settings, CABAC : Yes
Format settings, ReFrames : 4 frames
Codec ID : V_MPEG4/ISO/AVC
Duration : 1h 19mn
Bit rate : 9 084 Kbps
Width : 1 920 pixels
Height : 1 080 pixels
Display aspect ratio : 16:9
Frame rate : 23.976 fps
Color space : YUV
Chroma subsampling : 4:2:0
Bit depth : 8 bits
Scan type : Progressive
Bits/(Pixel*Frame) : 0.183
Stream size : 5.06 GiB (88%)
Title : BDrip by Ash61
Writing library : x264 core 119 r2106 07efeb4
Encoding settings : cabac=1 / ref=4 / deblock=1:-3:-3 / analyse=0x3:0x113 / me=umh / subme=9 / psy=1 / psy_rd=1.00:0.15 / mixed_ref=1 / me_range=16 / chroma_me=1 / trellis=2 / 8x8dct=1 / cqm=0 / deadzone=21,11 / fast_pskip=1 / chroma_qp_offset=-3 / threads=3 / sliced_threads=0 / nr=0 / decimate=1 / interlaced=0 / bluray_compat=0 / constrained_intra=0 / bframes=6 / b_pyramid=2 / b_adapt=2 / b_bias=0 / direct=3 / weightb=1 / open_gop=0 / weightp=2 / keyint=250 / keyint_min=23 / scenecut=40 / intra_refresh=0 / rc_lookahead=60 / rc=crf / mbtree=1 / crf=18.0 / qcomp=0.70 / qpmin=0 / qpmax=69 / qpstep=4 / vbv_maxrate=40000 / vbv_bufsize=40000 / crf_max=0.0 / nal_hrd=none / frame-packing=4 / ip_ratio=1.40 / aq=1:0.70
Audio #1
ID : 2
Format : AC-3
Format/Info : Audio Coding 3
Mode extension : CM (complete main)
Codec ID : A_AC3
Duration : 1h 19mn
Bit rate mode : Constant
Bit rate : 640 Kbps
Channel(s) : 6 channels
Channel positions : Front: L C R, Side: L R, LFE
Sampling rate : 48.0 KHz
Bit depth : 16 bits
Compression mode : Lossy
Stream size : 365 MiB (6%)
Title : Дубляж
Language : Russian
Audio #2
ID : 3
Format : AC-3
Format/Info : Audio Coding 3
Mode extension : CM (complete main)
Codec ID : A_AC3
Duration : 1h 19mn
Bit rate mode : Constant
Bit rate : 448 Kbps
Channel(s) : 6 channels
Channel positions : Front: L C R, Side: L R, LFE
Sampling rate : 48.0 KHz
Bit depth : 16 bits
Compression mode : Lossy
Stream size : 255 MiB (4%)
Language : English
Text
ID : 4
Format : UTF-8
Codec ID : S_TEXT/UTF8
Codec ID/Info : UTF-8 Plain Text
Title : Full
Language : English
Menu
00:00:00.000 : :1
00:08:06.736 : :2
00:15:08.908 : :3
00:22:05.574 : :4
00:29:40.529 : :5
00:34:05.961 : :6
00:38:15.210 : :7
00:46:14.897 : :8
00:51:35.092 : :9
00:57:18.810 : :10
01:04:12.015 : :11
01:13:50.176 : :12

Скриншоты

Благодарности релизеру (14)

Торрент:

Статус:

Размер:

Зарегистрирован   [ 2012-06-19 18:28 ]

проверено

5.78 GB