Торренты   
 
 

 

Тарбозавр / Jeombaki: Hanbandoeui Gongryong / The Tarbosaurus Speckles [2011, BDrip, half1080p, Anamorph OverUnder]

Рейтинг 3D:
8 голосов
8.2
Рейтинг фильма:
9 голосов
8.0
 
Вы должны быть авторизированы,
чтобы ставить оценки


(С) Закрыто правообладателем -ТарбозаврJeombaki: Hanbandoeui GongryongThe Tarbosaurus Speckles
Год выпуска: 2011
Страна: Южная Корея (CJ Entertainment, EBS, Dream Search C & C, OliveStudio)
Жанр: Мультфильм, Приключения
Продолжительность: 01:28:38
Перевод: Профессиональный (дублированный) (Студия "Баритон")
Режиссер: Сань-хо Хань / Sang-ho Han
В ролях: Tarbosaurus, Tyrannosaurus, Velociraptor, Therizinosaurus, Pukyongosaurus, Torosaurus, Haenamichnus, Ankylosaurus, Charonosaurus, Tsintaosaurus, Hypsilophodon, Microraptors, Pachycephalosaurus, Repenomamus, Nemicolopterus, Protoceratops.
Описание: 70 миллионов лет назад динозавры владели миром. В бескрайних лесах обитало бесчисленное множество разновидностей этих удивительных животных. Самый молодой из семьи Тарбозавров, игривый и любопытный малыш по имени Пятнистый, с нетерпением ждет, когда же старшие собратья возьмут его на охоту, чтобы преподать первые уроки взрослой жизни. Но когда наступает этот долгожданный день, на стадо тарбозавров нападает жуткий тираннозавр Одноглазый. Потерявшись, Пятнистый встречается с другим динозавриком, отбившимся от родных, — Синеглазкой. Отныне малышам предстоит вместе сражаться за жизнь. Впереди друзей ждут долгие годы, наполненные любовью, страхом, печалью и радостью, счастьем и надеждой.--Премьера: 26 января 2012 (17 мая 2012)

Проверено на встроенном плейере ТВ Samsung UE-C7000--Формат 3d: Anamorph OverUnder
Качество: BDrip
Контейнер: MKV-Видео: AVC / 23,976 fps / 1920х1080p / 10.0 Mbps
Аудио: Русский / AC3 / 48 KHz / 5.1 ch / 640 Kbps
Субтитры: Отсутствуют

MediaInfo

General
UniqueID : 179180376875035832814251194848409552744 (0x86CCE2A4CAAE7EB2BFF41EA3FFD40768)
Complete name : F:\Downloads\TheTarbosaurusSpeckles(3D)2011.halfOU(Ash61).mkv
Format : Matroska
File size : 6.75 GiB
Duration : 1h 28mn
Overall bit rate : 10.9 Mbps
Movie name : Jeombaki: Hanbandoeui Gongryong (3D) 2011 (by Ash61)
Encoded date : UTC 2012-06-20 15:42:00
Writing application : mkvmerge v3.4.0 ('Rapunzel') сборка от May 15 2010 09:38:20
Writing library : libebml v0.8.0 + libmatroska v0.9.0
Video
ID : 1
Format : AVC
Format/Info : Advanced Video Codec
Format profile : High@L4.1
Format settings, CABAC : Yes
Format settings, ReFrames : 4 frames
Codec ID : V_MPEG4/ISO/AVC
Duration : 1h 28mn
Bit rate : 10.0 Mbps
Width : 1 920 pixels
Height : 1 080 pixels
Display aspect ratio : 16:9
Frame rate : 23.976 fps
Color space : YUV
Chroma subsampling : 4:2:0
Bit depth : 8 bits
Scan type : Progressive
Bits/(Pixel*Frame) : 0.202
Stream size : 6.22 GiB (92%)
Title : BDrip by Ash61
Writing library : x264 core 119 r2106 07efeb4
Encoding settings : cabac=1 / ref=4 / deblock=1:-3:-3 / analyse=0x3:0x113 / me=umh / subme=9 / psy=1 / psy_rd=1.00:0.15 / mixed_ref=1 / me_range=16 / chroma_me=1 / trellis=2 / 8x8dct=1 / cqm=0 / deadzone=21,11 / fast_pskip=1 / chroma_qp_offset=-3 / threads=3 / sliced_threads=0 / nr=0 / decimate=1 / interlaced=0 / bluray_compat=0 / constrained_intra=0 / bframes=6 / b_pyramid=2 / b_adapt=2 / b_bias=0 / direct=3 / weightb=1 / open_gop=0 / weightp=2 / keyint=250 / keyint_min=23 / scenecut=40 / intra_refresh=0 / rc_lookahead=60 / rc=crf / mbtree=1 / crf=17.0 / qcomp=0.70 / qpmin=0 / qpmax=69 / qpstep=4 / vbv_maxrate=40000 / vbv_bufsize=40000 / crf_max=0.0 / nal_hrd=none / frame-packing=4 / ip_ratio=1.40 / aq=1:0.70
Language : Korean
Audio
ID : 2
Format : AC-3
Format/Info : Audio Coding 3
Mode extension : CM (complete main)
Codec ID : A_AC3
Duration : 1h 28mn
Bit rate mode : Constant
Bit rate : 640 Kbps
Channel(s) : 6 channels
Channel positions : Front: L C R, Side: L R, LFE
Sampling rate : 48.0 KHz
Bit depth : 16 bits
Compression mode : Lossy
Stream size : 406 MiB (6%)
Title : Дубляж
Language : Russian
Menu
00:00:00.000 : :1
00:07:12.015 : :2
00:14:09.015 : :3
00:22:34.520 : :4
00:31:30.055 : :5
00:38:04.407 : :6
00:44:59.071 : :7
00:53:31.375 : :8
00:59:57.844 : :9
01:08:32.317 : :10
01:16:33.589 : :11
01:22:54.011 : :12
Благодарности релизеру (33)

Торрент:

Статус:

Размер:

Зарегистрирован   [ 2012-06-20 22:56 ]

© закрыто правообладателем

6.75 GB

 
 Мнение о фильме (9)





Как мультик?? Детям смотреть можно??? На ледниковый период не похоже??
 

bizon2012, судя по отрывкам: возникло желание полностью посмотреть; самое "криминальное" для детей в фильме - еда добычи, но показано "скрыто" (без крови и вида отрывания плоти).
Ледниковый период - комедия, а тут, скорее, драма. К тому же, там специально мультяшно нарисовано, а здесь максимально реалистично, как в документалках БиБиСи.
 

Какой же это "мультфильм"? Действительно, скорее вполне серьезный, почти документальный, фильм. К тому же, снятый на реальной, природной натуре в Новой Зеландии. В Аватаре и то больше "мультфильма", чем здесь...
Только вот, природные пейзажи, похоже, в основном сконвертированы в 3D...
 

Шикарный фильм. И 3D хорошее. Советую.
 

Динозавры, как настоящие! Круть!
 

Огромное спасибо за фильм! Фильм отличный! 3D отличное!
 

Очень познавательный и качественный фильм!Большое спасибо за раздачу!
 

Спасибо за фильм.Так реально...
 

Thanks.