Торренты   
 
 


Цирк! Цирк! Цирк! / Orla Frosnapper (Питер Додд / Peter Dodd) [2011, Мультфильм, комедия, семейный, HDTV 1080i, Anamorph SideBySide]

Цирк! Цирк! Цирк!
Orla Frosnapper- Год выпуска: 2011
Страна: Дания
Жанр: Мультфильм, комедия, семейный
Продолжительность: 01:20:53
Перевод: Профессиональный (полное дублирование)
-Режиссер: Питер Додд / Peter Dodd
В ролях: Николай Ли Каас (Nikolaj Lie Kaas), Туре Линдхардт (Thure Lindhardt), Николай Коперникус (Nicolaj Kopernikus), Катрин Фалькенберг (Katrine Falkenberg), Маргете Койту (Margrethe Koytu), Оле Теструп (Ole Thestrup), Дэвид Бэйтсон (David Bateson), Cecilie Stenspil, Ларс Тиесгаард (Lars Thiesgaard), Лассе Лундерсков (Lasse Lunderskov), Lars Ranthe, Tove Dystrup, Джэми Мортон (Jamie Morton), Rikke Westi, Мария Рич (Maria Ric)
-Описание: В маленький город, в котором живет Виктор и его пес Хрящик, приезжает цирк. Директор цирка предлагает всем желающим выступить со своей программой, и все жители города начинают готовиться. Готовятся и Виктор с Хрящиком. Местный хулиган Фредди, по прозвищу Лягушка, обеспокоен происходящим: раньше в центре внимания города был он и его проказы, а теперь никто не обращает на него никакого внимания! Фредди решает похитить Хрящика и сам выступить на арене. Виктору и его друзьям, Якобу и Клэр, предстоят настоящие приключения!-Формат 3D: Anamorph SideBySide / Горизонтальная анаморфная стереопара
Порядок ракурсов: Левый ракурс первый
- Качество: HDTV 1080i
Формат: TS
Видео кодек: AVC
Аудио кодек: AC3
Видео: AVC 1920x1080i 25.000 fps 7 257 Kbps
Аудио: Russian : AC3 48.0 KHz 2 channels 448 kbps
-

Mediainfo


General
ID : 1 (0x1)
Complete name : D:\Downloads\Orla Frosnapper(3D)2011.halfSBS(Solaris).ts
Format : MPEG-TS
File size : 4.58 GiB
Duration : 1h 20mn
Overall bit rate : 8 110 Kbps
Maximum Overall bit rate : 35.5 Mbps
Video
ID : 4113 (0x1011)
Menu ID : 1 (0x1)
Format : AVC
Format/Info : Advanced Video Codec
Format profile : Main@L4.0
Format settings, CABAC : Yes
Format settings, ReFrames : 3 frames
Codec ID : 27
Duration : 1h 20mn
Bit rate mode : Variable
Bit rate : 7 257 Kbps
Maximum bit rate : 40.0 Mbps
Width : 1 920 pixels
Height : 1 080 pixels
Display aspect ratio : 16:9
Frame rate : 25.000 fps
Standard : Component
Color space : YUV
Chroma subsampling : 4:2:0
Bit depth : 8 bits
Scan type : Interlaced
Scan order : Top Field First
Bits/(Pixel*Frame) : 0.140
Stream size : 4.10 GiB (89%)
Color primaries : BT.709-5, BT.1361, IEC 61966-2-4, SMPTE RP177
Transfer characteristics : BT.709-5, BT.1361
Matrix coefficients : BT.709-5, BT.1361, IEC 61966-2-4 709, SMPTE RP177
Audio
ID : 4352 (0x1100)
Menu ID : 1 (0x1)
Format : AC-3
Format/Info : Audio Coding 3
Mode extension : CM (complete main)
Codec ID : 129
Duration : 1h 20mn
Bit rate mode : Constant
Bit rate : 448 Kbps
Channel(s) : 2 channels
Channel positions : Front: L R
Sampling rate : 48.0 KHz
Bit depth : 16 bits
Compression mode : Lossy
Delay relative to video : -237ms
Stream size : 259 MiB (6%)
Language : Russian

Скриншоты


Комментарии:





Забавный мультик, рекомендуется к просмотру.
 

Есть такой http://torrents3d.ru/viewtopic.php?t=2685 просьба рипмейкерам посмотреть разницу и оставить оптимальный. Если равноценны, то в пользу оформления.
У нас Anamorph вместо Half как на рутрекере, мы идем своим путем:) Ну и по рус. 3Д формат в заголовке не нужен, это 3Д трекер, здесь только 3Д и можно запомнить и в шапке сокращать. Короче сам поправил:)
ПС: HDTV 1080i интерлейс? Есть же БД прогрессив.
 

ну так прикрывайте ))
 

Zagruzin
Сорри, не нашёл почему-то.
Тада удаляюсь.
Тут интерлейс с 3Д канала. А если есть БДрип, зачем ентот нужен?
Просьба перенести в архив.
 

А тот рип точно "правильный", в смысле не ФАБ или настройки не оптимальные?
 

Да, рип хороший плюс ещё вот этот есть.
 

Топик был перенесен из форума Мультфильмы в форум Архив

Zagruzin