Торренты   
 
 

 

Амфибия / Amphibious (Брайан Юзна / Brian Yuzna) [2010, Ужасы, HDTV 1080i, Anamorph SideBySide]

Рейтинг 3D:
8 голосов
7.4
Рейтинг фильма:
10 голосов
4.9
 
Вы должны быть авторизированы,
чтобы ставить оценки


Амфибия
Amphibious - Год выпуска: 2010
Страна: Нидерланды, Индонезия
Жанр: Ужасы
Продолжительность: 01:23:00
Перевод: Профессиональный (многоголосый закадровый) НТВ+
-Режиссер: Брайан Юзна / Brian Yuzna
В ролях: Майкл Паре, Мохаммад Адитья, Бамбанг Б.С., Стивен Барай, Френсис Боске, Джинна Фассерт, Майкл С. Джехиан, Френсис Маджи, Тимо Оттеванrер
-Описание: Морской биолог Скайлар Шейн нанимает лодку капитана Джека Боумана, чтобы найти образцы доисторических форм возле северного побережья Суматры. Во время экспедиции, они сталкиваются с бандой контрабандистов, скрывающихся на рыболовецкой платформе посреди моря. Но контрабандисты не самое страшное, с чем придется столкнуться Скайлар — приближается жуткий шторм, а в темных глубинах вод проснулось древнее и могучее существо…- -Формат 3D: Anamorph SideBySide / Горизонтальная анаморфная стереопара
Порядок ракурсов: Левый ракурс первый
- Качество: HDTV 1080i
Формат: MPEG-TS
Видео кодек: AVC
Аудио кодек: AC3
Видео: AVC 1920x1080i 25.000 fps 7 746 Kbps
Аудио: Russian : AC3 48.0 KHz 2 channels 448 kbps
-

Mediainfo


General
ID : 1 (0x1)
Complete name : D:\Запись\Amphibious (3D)2010.halfSBS(Solaris).ts
Format : MPEG-TS
File size : 5.00 GiB
Duration : 1h 23mn
Overall bit rate : 8 624 Kbps
Maximum Overall bit rate : 35.5 Mbps
Video
ID : 4113 (0x1011)
Menu ID : 1 (0x1)
Format : AVC
Format/Info : Advanced Video Codec
Format profile : Main@L4.0
Format settings, CABAC : Yes
Format settings, ReFrames : 3 frames
Codec ID : 27
Duration : 1h 23mn
Bit rate mode : Variable
Bit rate : 7 746 Kbps
Maximum bit rate : 40.0 Mbps
Width : 1 920 pixels
Height : 1 080 pixels
Display aspect ratio : 16:9
Frame rate : 25.000 fps
Standard : Component
Color space : YUV
Chroma subsampling : 4:2:0
Bit depth : 8 bits
Scan type : Interlaced
Scan order : Top Field First
Bits/(Pixel*Frame) : 0.149
Stream size : 4.49 GiB (90%)
Color primaries : BT.709-5, BT.1361, IEC 61966-2-4, SMPTE RP177
Transfer characteristics : BT.709-5, BT.1361
Matrix coefficients : BT.709-5, BT.1361, IEC 61966-2-4 709, SMPTE RP177
Audio
ID : 4352 (0x1100)
Menu ID : 1 (0x1)
Format : AC-3
Format/Info : Audio Coding 3
Mode extension : CM (complete main)
Codec ID : 129
Duration : 1h 23mn
Bit rate mode : Constant
Bit rate : 448 Kbps
Channel(s) : 2 channels
Channel positions : Front: L R
Sampling rate : 48.0 KHz
Bit depth : 16 bits
Compression mode : Lossy
Delay relative to video : -217ms
Stream size : 266 MiB (5%)
Language : Russian

Скриншоты



-© Design by Solaris
Благодарности релизеру (11)

Торрент:

Статус:

Размер:

Зарегистрирован   [ 2012-07-01 03:52 ]

проверено

5 GB