Торренты   
 
 


Кунг-фу Кролик / Tu Xia Chuan Qi (Cан Ли Джан / Lijun Sun) [2011, Мультфильм, боевик, комедия, приключения, семейный, HDTV 1080i, Anamorph SideBySide]

Рейтинг 3D:
Пока никто не голосовал
Рейтинг фильма:
Пока никто не голосовал
 
Вы должны быть авторизированы,
чтобы ставить оценки


Кунг-фу Кролик
Tu Xia Chuan Qi- Год выпуска: 2011
Страна: Китай
Жанр: Мультфильм, боевик, комедия, приключения, семейный
Продолжительность: 01:24:59
Перевод: Профессиональный (полное дублирование)
-Режиссер: Cан Ли Джан / Lijun Sun
Роли озвучивали / дублировали: Фань Вэй, Ни Ян, Чжан Йи Шан, Сунь Хунлэй / Андрей Чижов
-Описание: Вы думаете кролик — это только ценный мех, диетическое мясо, и пугливый, застенчивый нрав? Не все кролики одинаково трусливы. Среди них есть и сильные духом уверенные в себе особи. Это все про нашего героя. Он всегда отличался от других невероятной смелостью. Видя такое стремление, старый мастер Кунг-Фу решил именно ему передать свои секреты мастерства. Придет день и Кролик станет новым супергероем.-Доп. информация: Прямой захват с канала "НТВ+3D" через ProgDVB.- -Формат 3D: Anamorph SideBySide / Горизонтальная анаморфная стереопара
Порядок ракурсов: Левый ракурс первый
- Качество: HDTV 1080i
Формат: MPEG-TS
Видео кодек: AVC
Аудио кодек: AC3
Видео: AVC 1920x1080i 25.000 fps 6 736 Kbps
Аудио: Russian : AC3 48.0 KHz 2 channels 448 kbps
-

Mediainfo


General
ID : 1 (0x1)
Complete name : D:\Запись\Kунг-фу Кролик (3D)2011.halfSBS(Solaris).ts
Format : MPEG-TS
File size : 4.49 GiB
Duration : 1h 24mn
Overall bit rate : 7 562 Kbps
Maximum Overall bit rate : 35.5 Mbps
Video
ID : 4113 (0x1011)
Menu ID : 1 (0x1)
Format : AVC
Format/Info : Advanced Video Codec
Format profile : Main@L4.0
Format settings, CABAC : Yes
Format settings, ReFrames : 3 frames
Codec ID : 27
Duration : 1h 24mn
Bit rate mode : Variable
Bit rate : 6 736 Kbps
Maximum bit rate : 40.0 Mbps
Width : 1 920 pixels
Height : 1 080 pixels
Display aspect ratio : 16:9
Frame rate : 25.000 fps
Standard : Component
Color space : YUV
Chroma subsampling : 4:2:0
Bit depth : 8 bits
Scan type : Interlaced
Scan order : Top Field First
Bits/(Pixel*Frame) : 0.130
Stream size : 4.00 GiB (89%)
Color primaries : BT.709-5, BT.1361, IEC 61966-2-4, SMPTE RP177
Transfer characteristics : BT.709-5, BT.1361
Matrix coefficients : BT.709-5, BT.1361, IEC 61966-2-4 709, SMPTE RP177
Audio
ID : 4352 (0x1100)
Menu ID : 1 (0x1)
Format : AC-3
Format/Info : Audio Coding 3
Mode extension : CM (complete main)
Codec ID : 129
Duration : 1h 24mn
Bit rate mode : Constant
Bit rate : 448 Kbps
Channel(s) : 2 channels
Channel positions : Front: L R
Sampling rate : 48.0 KHz
Bit depth : 16 bits
Compression mode : Lossy
Delay relative to video : -237ms
Stream size : 272 MiB (6%)
Language : Russian
-© Design by Solaris
Благодарности релизеру (2)

Торрент:

Статус:

Размер:

Зарегистрирован   [ 2012-07-03 16:35 ]

проверено

4.49 GB