Торренты   
 
 

 

Лас-Вегас / Las Vegas [Anamorph OverUnder]

Рейтинг 3D:
1 голосов
7.0
Рейтинг фильма:
1 голосов
7.0
 
Вы должны быть авторизированы,
чтобы ставить оценки


-Лас-Вегас / Las Vegas Год выпуска: 2012
Страна: Германия (Global Cinema)
Жанр: Документальный, Видовой
Продолжительность: 00:47:28
Перевод: Отсутствует
Режиссеры: Benjamin Eicher, Timo Joh. Mayer
Описание: Добро пожаловать в сказочный Лас-Вегас. Впервые Лас-Вегас, город в превосходной степени, богатый на звёзд и состоятельных игроков, показывается в полноценном 3D.
Вы увидите Лас-Вегас в море ночных огней и в свете ослепительного солнца, во всём его блеске и безумии, его самые роскошные отели и казино в мире. Прокатитесь по улицам этого красивейшего города, выставившем на своих улицах, для привлечения клиентов, ещё и копии многих мировых достопримечательностей.
Доп. информация: IMHO: Просто удивительно, как можно такие красивые виды, на, явно, не любительский бюджет, снять столь непрофессионально! Да ещё показывать нам рассказчика (вернее сказать - шепелявого читальщика) столь много!
Несмотря на это, фильм всё-таки стоит посмотреть.-- Проверено на встроенном плейере ТВ Samsung UE-C7000-- Формат 3d: Anamorph OverUnder
Качество: BDrip
Контейнер: MKV-Видео: AVC / 23,976 fps / 1920х1080p / 13.7 Mbps
Аудио: Английский / AC3 / 48 KHz / 2 ch / 448 Kbps
Субтитры: Отсутствуют

MediaInfo

General
UniqueID : 240387382917056416048954933063237968289 (0xB4D8ED07DDD5F2689FE22E98A95321A1)
Complete name : F:\Downloads\LasVegas(3D)2012.halfOU(Ash61).mkv
Format : Matroska
File size : 4.79 GiB
Duration : 47mn 29s
Overall bit rate : 14.5 Mbps
Movie name : Las Vegas (3D) 2012 (by Ash61)
Encoded date : UTC 2012-06-28 21:07:42
Writing application : mkvmerge v3.4.0 ('Rapunzel') сборка от May 15 2010 09:38:20
Writing library : libebml v0.8.0 + libmatroska v0.9.0
Video
ID : 1
Format : AVC
Format/Info : Advanced Video Codec
Format profile : High@L4.1
Format settings, CABAC : Yes
Format settings, ReFrames : 4 frames
Codec ID : V_MPEG4/ISO/AVC
Duration : 47mn 29s
Bit rate : 13.7 Mbps
Width : 1 920 pixels
Height : 1 080 pixels
Display aspect ratio : 16:9
Frame rate : 23.976 fps
Color space : YUV
Chroma subsampling : 4:2:0
Bit depth : 8 bits
Scan type : Progressive
Bits/(Pixel*Frame) : 0.276
Stream size : 4.55 GiB (95%)
Writing library : x264 core 119 r2106 07efeb4
Encoding settings : cabac=1 / ref=4 / deblock=1:-3:-3 / analyse=0x3:0x113 / me=umh / subme=9 / psy=1 / psy_rd=1.00:0.15 / mixed_ref=1 / me_range=16 / chroma_me=1 / trellis=2 / 8x8dct=1 / cqm=0 / deadzone=21,11 / fast_pskip=1 / chroma_qp_offset=-3 / threads=3 / sliced_threads=0 / nr=0 / decimate=1 / interlaced=0 / bluray_compat=0 / constrained_intra=0 / bframes=6 / b_pyramid=2 / b_adapt=2 / b_bias=0 / direct=3 / weightb=1 / open_gop=0 / weightp=2 / keyint=250 / keyint_min=23 / scenecut=40 / intra_refresh=0 / rc_lookahead=60 / rc=crf / mbtree=1 / crf=18.0 / qcomp=0.70 / qpmin=0 / qpmax=69 / qpstep=4 / vbv_maxrate=40000 / vbv_bufsize=40000 / crf_max=0.0 / nal_hrd=none / frame-packing=4 / ip_ratio=1.40 / aq=1:0.70
Audio
ID : 2
Format : AC-3
Format/Info : Audio Coding 3
Mode extension : CM (complete main)
Codec ID : A_AC3
Duration : 47mn 29s
Bit rate mode : Constant
Bit rate : 448 Kbps
Channel(s) : 2 channels
Channel positions : Front: L R
Sampling rate : 48.0 KHz
Bit depth : 16 bits
Compression mode : Lossy
Stream size : 152 MiB (3%)
Language : English
Menu
00:00:00.000 : :1
00:13:18.798 : :2
00:21:22.281 : :3
00:30:13.812 : :4
00:37:17.235 : :5
00:41:27.485 : :6
Благодарности релизеру (5)

Торрент:

Статус:

Размер:

Зарегистрирован   [ 2012-07-02 21:57 ]

проверено

4.79 GB