Торренты   
 
 

 

Обитель зла: возмездие (3D), Трейлер / Resident Evil 5 in 3D, Trailer [2012 г., DCPrip, Anamorph OverUnder]

Рейтинг 3D:
5 голосов
7.4
Рейтинг фильма:
4 голосов
8.5
 
Вы должны быть авторизированы,
чтобы ставить оценки


Обитель зла: возмездие (3D), Трейлер
Resident Evil 5 in 3D, Trailer
--Год выпуска: 2012
Страна: США, Германия
Жанр: ужасы, фантастика, боевик, триллер
Продолжительность: 00:01:59--Описание: Смертельный T-вирус, созданный в лабораториях корпорации «Амбрелла», продолжает захватывать Землю, превращая мировое население в легионы пожирающих плоть зомби. Последняя надежда человечества Элис внедряется в самое сердце самой тайной исследовательской базы корпорации и узнает еще больше о собственном таинственном прошлом. Не имея путей к отступлению, Элис продолжает искать виновных в глобальной катастрофе. Вызов, который она принимала в Токио, Нью-Йорке, Вашингтоне и даже в Москве, приводит ее в итоге к взрывающему сознание откровению, которое заставит ее переосмыслить все, что она полагала правдой. С помощью новых союзников и старых друзей, Элис будет сражаться за выживание и убегать из враждебного мира. Отсчет времени начат…--Формат 3d: Anamorph OverUnder (левый ракурс верхний)
Качество: DCPrip
Контейнер: mkv
Видео: AVC / 1920х1080 / 24 fps / 7607 Kbps
Аудио: Русский / AC3 / 6 ch / 448 Kbps / 48 KHz--

MediaInfo:

Код:
General
Unique ID                      : 242579722884326501471118335993938246518 (0xB67F27BC8650E69BA3ADAF0DF0F0FB76)
Complete name                  : L:\_3D\3D-Trailers\Trailer_ResidentEvil5(3D)HalfOU-abq.mkv
Format                         : Matroska
Format version                 : Version 2
File size                      : 118 MiB
Duration                       : 1mn 59s
Overall bit rate               : 8 219 Kbps
Encoded date                   : UTC 2012-07-02 19:24:17
Writing application            : mkvmerge v4.0.0 ('The Stars were mine') сборка от Jun  6 2010 16:18:42
Writing library                : libebml v1.0.0 + libmatroska v1.0.0
Video
ID                             : 1
Format                         : AVC
Format/Info                    : Advanced Video Codec
Format profile                 : High@L4.1
Format settings, CABAC         : Yes
Format settings, ReFrames      : 4 frames
Codec ID                       : V_MPEG4/ISO/AVC
Duration                       : 1mn 59s
Bit rate                       : 7 607 Kbps
Width                          : 1 920 pixels
Height                         : 1 080 pixels
Display aspect ratio           : 16:9
Frame rate                     : 24.000 fps
Color space                    : YUV
Chroma subsampling             : 4:2:0
Bit depth                      : 8 bits
Scan type                      : Progressive
Bits/(Pixel*Frame)             : 0.153
Stream size                    : 109 MiB (93%)
Writing library                : x264 core 116 r2074 2641b9e
Encoding settings              : cabac=1 / ref=4 / deblock=1:-3:-3 / analyse=0x3:0x113 / me=umh / subme=9 / psy=1 / psy_rd=1.00:0.15 / mixed_ref=1 / me_range=16 / chroma_me=1 / trellis=2 / 8x8dct=1 / cqm=0 / deadzone=21,11 / fast_pskip=1 / chroma_qp_offset=-3 / threads=6 / sliced_threads=0 / nr=0 / decimate=1 / interlaced=0 / bluray_compat=0 / constrained_intra=0 / bframes=6 / b_pyramid=2 / b_adapt=2 / b_bias=0 / direct=3 / weightb=1 / open_gop=0 / weightp=2 / keyint=240 / keyint_min=24 / scenecut=40 / intra_refresh=0 / rc_lookahead=60 / rc=crf / mbtree=1 / crf=18.0 / qcomp=0.60 / qpmin=0 / qpmax=69 / qpstep=4 / vbv_maxrate=40000 / vbv_bufsize=40000 / crf_max=0.0 / nal_hrd=none / frame-packing=4 / ip_ratio=1.40 / aq=1:0.70
Language                       : English
Default                        : No
Forced                         : No
Audio
ID                             : 2
Format                         : AC-3
Format/Info                    : Audio Coding 3
Mode extension                 : CM (complete main)
Format settings, Endianness    : Big
Codec ID                       : A_AC3
Duration                       : 1mn 59s
Bit rate mode                  : Constant
Bit rate                       : 448 Kbps
Channel(s)                     : 6 channels
Channel positions              : Front: L C R, Side: L R, LFE
Sampling rate                  : 48.0 KHz
Bit depth                      : 16 bits
Compression mode               : Lossy
Stream size                    : 6.41 MiB (5%)
Language                       : Russian
Default                        : Yes
Forced                         : No

Скриншоты

Благодарности релизеру (3)

Торрент:

Статус:

Размер:

Зарегистрирован   [ 2012-07-03 14:32 ]

проверено

118 MB

 
 Мнение о фильме (1)





немножко 3D присутствует:)но не очень смарел фильм в АНапе