Торренты   
 
 


Трейлер №2, Храбрая сердцем 3D / Trailer №2, Brave 3D [2012 г., DCPrip, Anamorph OverUnder]

Рейтинг 3D:
Пока никто не голосовал
Рейтинг фильма:
Пока никто не голосовал
 
Вы должны быть авторизированы,
чтобы ставить оценки


Трейлер №2, Храбрая сердцем 3D
Trailer №2, Brave 3D
--Год выпуска: 2012
Страна: США
Жанр: мультфильм
Продолжительность: 00:01:32--Описание: Испокон веков мифы и легенды окутывают загадочной пеленой живописные отроги Шотландских гор. Искусной лучнице Мериде приходится выбирать свой путь в жизни самостоятельно, и однажды она отказывается следовать древним традициям королевства, бросая вызов могущественным шотландским кланам и их предводителям: нескладному лорду МакГаффину, угрюмому лорду Макинтошу и сварливому лорду Дингволлу. Неосторожные поступки Мериды грозят повергнуть королевство в хаос, и тогда она отправляется за советом к эксцентричной отшельнице, которая вместо помощи накладывает на Мериду опасное заклятье. Юной принцессе предстоит полагаться только на собственную храбрость, чтобы преодолеть могущественное волшебство и победить самого страшного зверя из тех, что водятся в горных долинах.--Дополнительная информация: Первый трейлер находится >>>ЗДЕСЬ<<<--Формат 3d: Anamorph OverUnder (левый ракурс верхний)
Качество: DCPrip
Контейнер: mkv
Видео: AVC / 1920х1080p / 24 fps / 6556 Kbps
Аудио #1: Русский / AC3 / 6 ch / 448 Kbps / 48 KHz
Аудио #2: Казахский / AC3 / 6 ch / 448 Kbps / 48 KHz - Всем советую послушать этот замечательный язык--

Прикол&#58;

MediaInfo&#58;

Код:
General
Unique ID                      : 190312789763725509208343390791230801099 (0x8F2CE8F9BAFA0AAEB497C40644D3C4CB)
Complete name                  : L:\_3D\3D-Trailers\Trailer2_Brave3D.HalfOU-abq.mkv
Format                         : Matroska
Format version                 : Version 2
File size                      : 83.9 MiB
Duration                       : 1mn 32s
Overall bit rate               : 7 603 Kbps
Encoded date                   : UTC 2012-07-03 17:45:58
Writing application            : mkvmerge v4.0.0 ('The Stars were mine') сборка от Jun  6 2010 16:18:42
Writing library                : libebml v1.0.0 + libmatroska v1.0.0
Video
ID                             : 1
Format                         : AVC
Format/Info                    : Advanced Video Codec
Format profile                 : High@L4.1
Format settings, CABAC         : Yes
Format settings, ReFrames      : 4 frames
Codec ID                       : V_MPEG4/ISO/AVC
Duration                       : 1mn 32s
Bit rate                       : 6 556 Kbps
Width                          : 1 920 pixels
Height                         : 1 080 pixels
Display aspect ratio           : 16:9
Frame rate                     : 24.000 fps
Color space                    : YUV
Chroma subsampling             : 4:2:0
Bit depth                      : 8 bits
Scan type                      : Progressive
Bits/(Pixel*Frame)             : 0.132
Stream size                    : 72.4 MiB (86%)
Writing library                : x264 core 116 r2074 2641b9e
Encoding settings              : cabac=1 / ref=4 / deblock=1:-3:-3 / analyse=0x3:0x113 / me=umh / subme=9 / psy=1 / psy_rd=1.00:0.15 / mixed_ref=1 / me_range=16 / chroma_me=1 / trellis=2 / 8x8dct=1 / cqm=0 / deadzone=21,11 / fast_pskip=1 / chroma_qp_offset=-3 / threads=6 / sliced_threads=0 / nr=0 / decimate=1 / interlaced=0 / bluray_compat=0 / constrained_intra=0 / bframes=6 / b_pyramid=2 / b_adapt=2 / b_bias=0 / direct=3 / weightb=1 / open_gop=0 / weightp=2 / keyint=240 / keyint_min=24 / scenecut=40 / intra_refresh=0 / rc_lookahead=60 / rc=crf / mbtree=1 / crf=18.0 / qcomp=0.60 / qpmin=0 / qpmax=69 / qpstep=4 / vbv_maxrate=40000 / vbv_bufsize=40000 / crf_max=0.0 / nal_hrd=none / frame-packing=4 / ip_ratio=1.40 / aq=1:0.70
Language                       : English
Default                        : No
Forced                         : No
Audio #1
ID                             : 2
Format                         : AC-3
Format/Info                    : Audio Coding 3
Mode extension                 : CM (complete main)
Format settings, Endianness    : Big
Codec ID                       : A_AC3
Duration                       : 1mn 32s
Bit rate mode                  : Constant
Bit rate                       : 448 Kbps
Channel(s)                     : 6 channels
Channel positions              : Front: L C R, Side: L R, LFE
Sampling rate                  : 48.0 KHz
Bit depth                      : 16 bits
Compression mode               : Lossy
Stream size                    : 4.95 MiB (6%)
Language                       : Russian
Default                        : Yes
Forced                         : No
Audio #2
ID                             : 3
Format                         : AC-3
Format/Info                    : Audio Coding 3
Mode extension                 : CM (complete main)
Format settings, Endianness    : Big
Codec ID                       : A_AC3
Duration                       : 1mn 32s
Bit rate mode                  : Constant
Bit rate                       : 448 Kbps
Channel(s)                     : 6 channels
Channel positions              : Front: L C R, Side: L R, LFE
Sampling rate                  : 48.0 KHz
Bit depth                      : 16 bits
Compression mode               : Lossy
Stream size                    : 4.95 MiB (6%)
Language                       : Kazakh
Default                        : No
Forced                         : No

Скриншоты

Благодарности релизеру (1)

Торрент:

Статус:

Размер:

Зарегистрирован   [ 2012-07-03 22:02 ]

проверено

84 MB