Торренты   
 
 

 

Натали 3Д / Natali 3D (Чжу Кьон-чжун / Kyung-Jung Ju) [2010 г., Anamorph OverUnder]

Рейтинг 3D:
2 голосов
7.5
Рейтинг фильма:
2 голосов
6.0
 
Вы должны быть авторизированы,
чтобы ставить оценки


Натали 3Д / Natali 3D
Год выпуска: 2010
Страна: Корея Южная
Жанр: Эротика, мелодрама
Продолжительность: 01:29:47
Перевод: Любительский (одноголосый)
Режиссер: Чжу Кьон-чжун / Kyung-Jung Ju
В ролях: Ли Сунг Чжа / Lee Seong-jae, Ким Чжи Хун / Kim Ji-hoon-I, Ким Ки Ён / Kim Gi-yeon-I
Описание: Молодой профессор, преподающий теорию искусства в университете страстно увлекается одной из своих молодых студенток. Он создает одну из своих лучших работ, которой дает имя Натали. С течением времени их бурный роман заканчивается тем, что девушка уходит сказав, что вернется к художнику через десять лет для того, чтобы сравнить себя со скульптурой, моделью которой она послужила.

Доп. информация

Качество: BDrip
Формат: mkv
Формат 3D: Half OverUnder / Вертикальная анаморфная стереопара
Порядок ракурсов: Параллельная пара
Видео кодек: x264
Аудио кодек: AC3, DTS
Видео: MPEG4 Video (H264) 1920x1080p 23.98fps 14.4 Mbps
Аудио 1: Russian: AC3 48000Hz 5.1 ch 448 kbps
Аудио 2: Korean: DTS 48000Hz 5.1 ch 1510 Kbps
Формат 3d: Anamorph OverUnder

Скриншоты

MediaInfo

Format : Matroska
File size : 10.5 GiB
Duration : 1h 29mn
Overall bit rate : 16.7 Mbps
Encoded date : UTC 2011-04-03 00:47:52
Writing application : mkvmerge v2.9.7 ('Tenderness') built on Jul 1 2009 18:43:35
Writing library : libebml v0.7.7 + libmatroska v0.8.1
Video
ID : 1
Format : AVC
Format/Info : Advanced Video Codec
Format profile : High@L4.1
Format settings, CABAC : Yes
Format settings, ReFrames : 4 frames
Format settings, GOP : M=1, N=32
Muxing mode : Container profile=Unknown@4.1
Codec ID : V_MPEG4/ISO/AVC
Duration : 1h 29mn
Bit rate : 14.4 Mbps
Width : 1 920 pixels
Height : 1 080 pixels
Display aspect ratio : 0.889
Frame rate : 23.976 fps
Color space : YUV
Chroma subsampling : 4:2:0
Bit depth : 8 bits
Scan type : Progressive
Bits/(Pixel*Frame) : 0.289
Stream size : 9.02 GiB (86%)
Writing library : x264 core 114 r1924 08d04a4
Encoding settings : cabac=1 / ref=4 / deblock=1:-3:-3 / analyse=0x3:0x113 / me=tesa / subme=10 / psy=1 / psy_rd=1.00:0.00 / mixed_ref=1 / me_range=64 / chroma_me=1 / trellis=2 / 8x8dct=1 / cqm=0 / deadzone=21,11 / fast_pskip=0 / chroma_qp_offset=-2 / threads=6 / sliced_threads=0 / nr=0 / decimate=1 / interlaced=0 / constrained_intra=0 / bframes=5 / b_pyramid=2 / b_adapt=2 / b_bias=0 / direct=3 / weightb=1 / open_gop=0 / weightp=2 / keyint=250 / keyint_min=23 / scenecut=40 / intra_refresh=0 / rc=crf / mbtree=0 / crf=18.0 / qcomp=0.60 / qpmin=0 / qpmax=69 / qpstep=4 / frame-packing=4 / ip_ratio=1.40 / pb_ratio=1.30 / aq=1:0.80
Language : Korean
Audio #1
ID : 2
Format : AC-3
Format/Info : Audio Coding 3
Mode extension : CM (complete main)
Codec ID : A_AC3
Duration : 1h 29mn
Bit rate mode : Constant
Bit rate : 448 Kbps
Channel(s) : 6 channels
Channel positions : Front: L C R, Side: L R, LFE
Sampling rate : 48.0 KHz
Bit depth : 16 bits
Stream size : 288 MiB (3%)
Language : Russian
Audio #2
ID : 3
Format : DTS
Format/Info : Digital Theater Systems
Codec ID : A_DTS
Duration : 1h 29mn
Bit rate mode : Constant
Bit rate : 1 510 Kbps
Channel(s) : 6 channels
Channel positions : Front: L C R, Side: L R, LFE
Sampling rate : 48.0 KHz
Bit depth : 16 bits
Stream size : 970 MiB (9%)
Language : Korean
Menu
00:00:00.000 : en:01
00:07:03.173 : en:02
00:14:48.721 : en:03
00:21:49.183 : en:04
00:33:17.746 : en:05
00:41:34.200 : en:06
00:46:49.515 : en:07
00:52:58.467 : en:08
01:01:18.592 : en:09
01:10:10.039 : en:10
01:16:38.803 : en:11
01:22:27.025 : en:12
Благодарности релизеру (7)

Торрент:

Статус:

Размер:

Зарегистрирован   [ 2012-07-03 23:22 ]

проверено

10.45 GB