Торренты   
 
 

 

Облачно, возможны осадки в виде фрикаделек в 3Д / Cloudy with a Chance of Meatballs in 3D (Фил Лорд, Крис Миллер / Phil Lord, Chris Miller) [2009 г., семейный, мультфильм, BDrip 720p] OverUnder / Вертикальная стереопара

Рейтинг 3D:
79 голосов
8.6
Рейтинг фильма:
74 голосов
8.4
 
Вы должны быть авторизированы,
чтобы ставить оценки


Облачно, возможны осадки в виде фрикаделек / Cloudy with a Chance of Meatballs
Год выпуска: 2009
Страна: США
Жанр: семейный, мультфильм
Продолжительность: 01:29:53
Перевод: Профессиональный (полное дублирование)
Русские субтитры: нет
Режиссер: Фил Лорд / Phil Lord, Крис Миллер / Chris Miller
В ролях: Билл Хэйдер, Анна Фэрис, Джеймс Каан, Энди Сэмберг, Брюс Кэмпбелл, Мистер Ти, Бобби Дж. Томпсон, Бенджамин Брэтт, Нил Патрик Харрис, Эл Рокер
Описание: Ученый пытается избавить беднейшую часть человечества от голода, но что-то у него идет не так, и в результате с неба начинают выпадать осадки в виде… еды.
Качество: BDrip
Формат: MKV
Формат 3D: OverUnder / Вертикальная стереопара
Видео: MPEG4 Video (H264) 1280x1104 23.98fps, ~5 mbps crf18
Аудио1: Русский : Dolby AC3 48000Hz 6ch, 640 kbps
Аудио2: English : Dolby AC3 48000Hz 6ch, 640 kbps

me

Format : Matroska
File size : 3.88 GiB
Duration : 1h 29mn
Overall bit rate : 6 179 Kbps
Encoded date : UTC 2010-06-28 02:02:19
Writing application : mkvmerge v4.0.0 ('The Stars were mine') сборка от Jun 6 2010 16:18:42
Writing library : libebml v1.0.0 + libmatroska v1.0.0
Video
ID : 1
Format : AVC
Format/Info : Advanced Video Codec
Format profile : High@L4.1
Format settings, CABAC : Yes
Format settings, ReFrames : 4 frames
Muxing mode : Container profile=Unknown@4.1
Codec ID : V_MPEG4/ISO/AVC
Duration : 1h 29mn
Bit rate : 4 776 Kbps
Width : 1 280 pixels
Height : 1 104 pixels
Display aspect ratio : 1.159
Frame rate : 23.976 fps
Resolution : 8 bits
Colorimetry : 4:2:0
Scan type : Progressive
Bits/(Pixel*Frame) : 0.141
Stream size : 3.00 GiB (77%)
Writing library : x264 core 98 r1649 c54c47d
Encoding settings : cabac=1 / ref=4 / deblock=1:-1:-1 / analyse=0x3:0x133 / me=umh / subme=7 / psy=1 / psy_rd=1.00:0.00 / mixed_ref=1 / me_range=16 / chroma_me=1 / trellis=2 / 8x8dct=1 / cqm=0 / deadzone=21,11 / fast_pskip=1 / chroma_qp_offset=-2 / threads=6 / sliced_threads=0 / nr=0 / decimate=1 / interlaced=0 / constrained_intra=0 / bframes=6 / b_pyramid=0 / b_adapt=2 / b_bias=0 / direct=3 / weightb=1 / weightp=2 / keyint=250 / keyint_min=25 / scenecut=40 / intra_refresh=0 / rc_lookahead=40 / rc=crf / mbtree=1 / crf=18.0 / qcomp=0.60 / qpmin=10 / qpmax=51 / qpstep=4 / vbv_maxrate=50000 / vbv_bufsize=50000 / crf_max=0.0 / ip_ratio=1.40 / aq=2:1.00 / nal_hrd=none
Audio #1
ID : 2
Format : AC-3
Format/Info : Audio Coding 3
Format_Settings_ModeExtension : CM (complete main)
Codec ID : A_AC3
Duration : 1h 29mn
Bit rate mode : Constant
Bit rate : 640 Kbps
Channel(s) : 6 channels
Channel positions : Front: L C R, Side: L R, LFE
Sampling rate : 48.0 KHz
Stream size : 411 MiB (10%)
Language : Russian
Audio #2
ID : 3
Format : AC-3
Format/Info : Audio Coding 3
Format_Settings_ModeExtension : CM (complete main)
Codec ID : A_AC3
Duration : 1h 29mn
Bit rate mode : Constant
Bit rate : 640 Kbps
Channel(s) : 6 channels
Channel positions : Front: L C R, Side: L R, LFE
Sampling rate : 48.0 KHz
Stream size : 411 MiB (10%)

Скриншоты

Остальные раздачи этого фильма (6)
Благодарности релизеру (2)

Торрент:

Статус:

Размер:

Зарегистрирован   [ 2010-06-28 06:56 ]

проверено

3.88 GB

 
 Мнение о фильме (17)





мультфильм супер всем смотреть скора вторая часть будет
 

Хороший мультфильм...
 

Прикольный мультик!
 

Понравилось, спасибо!
 

Отличный мультфильм,смотреть всем,3д в норме
 

Мультфильм отличный!
 

мульт - супер! качну в коллекцию...
 

Отлично! когда вторая часть?
 

Отличный мульт, очень понравился. Прямо как триллер в мультяшном варианте) Интересно и детям, и взрослым!
 

Классный мультик для всей семьи! Понравился всем. 3d в норме. Ждем продолжения.
 

Дети попросили скачать, им очень нравится. 3D тоже неплохое
 

большое спасибо за хороший мультик
 

Дайте скорости ребята))
 

Уверен что детям понравится. Но лично мне показался как-то не очень... Может быть из-за того, что... или я был не "в детском настроении", или я действительно уже слегка "перерос" такие мультики. (хотя, правельнее сказать - "недорос", всего-то шестой год на пенсии). Судя по рекламе вышло продолжение - "Облачно-2...", обязательно посмотрю... Может быть и изменю своё мнение... В любом случае всем раздающим - большое спасибо.
 

Отличный мульт, ребенку нравится, 3D на высоте.
 

Понравилось, спасибо!
 

3D хорошее но вылетов нет, мультик будет интересен для детей!