Торренты   
 
 

 

LG Демо (март 2012) / LG Demo (march 2012) [2012, HDrip, half1080p, Anamorph OverUnder]

Рейтинг 3D:
116 голосов
9.1
Рейтинг фильма:
103 голосов
8.3
 
Вы должны быть авторизированы,
чтобы ставить оценки


LG Демо (март 2012) / LG Demo (march 2012) Год выпуска: 2012
Страна: Корея
Жанр: Демо
Продолжительность: 00:34:25
Перевод: Не требуется
Описание: Очередной демо диск от LG.-Содержание:
1. Super Junior - Mr. Simple (3:20)
2. World Cities - Paris (3:49)
3. Sports, Feel The Moments (3:53)
4. G.NA - Top Girl (4:00)
5. Summer Vacation (2:47)
6. Flying Steps (2:48)
7. Air (3:52)
8. World Of Warcraft (2:46)
9. World Cities - Barcelona (2:45)
10. Sports Highlight (2:16)
11. Shark (2:11)-Доп. информация: Рип неизвестного автора, рипнуто какой-то "однокликовой" прогой. Временами проскакивают мелкие артефактики.
Вырезал два ролика, которые уже имеются на трекере в более высоком качестве. Добавил главы (ролик - глава).
Как всегда, у LG, эффектнейшее 3Д с массой, так горячо любимых народом, вылетов + в замедленной съёмке.
Содержит популярнейший ролик "G.Na - Top Girl" в качестве, на порядок выше имеющегося на трекере.
Также содержит 3 ролика, имеющихся в релизе "LG Demo Global", только там горизонталка, примерно в таком же качестве.-- Проверено на встроенном плейере ТВ Samsung UE-C7000--Формат 3d: Anamorph OverUnder
Качество: HDrip
Контейнер: MKV-Видео: AVC / 23,976 fps / 1920х1080p / 16.3 Mbps
Аудио: Английский / AC3 / 44,1 KHz / 5.1 ch / 384 Kbps
Субтитры: Отсутствуют

MediaInfo

General
UniqueID : 227024832350672107118749836515678973521 (0xAACB646C17C15E0AB364DD5599A16E51)
Complete name : F:\Downloads\LG.Demo.2012(3D)halfOU.mkv
Format : Matroska
File size : 4.10 GiB
Duration : 34mn 25s
Overall bit rate : 17.0 Mbps
Movie name : LG Demo 2012 (3D)
Encoded date : UTC 2012-07-05 16:40:35
Writing application : mkvmerge v3.4.0 ('Rapunzel') сборка от May 15 2010 09:38:20
Writing library : libebml v0.8.0 + libmatroska v0.9.0
Video
ID : 1
Format : AVC
Format/Info : Advanced Video Codec
Format profile : High@L4.1
Format settings, CABAC : No
Format settings, ReFrames : 1 frame
Codec ID : V_MPEG4/ISO/AVC
Duration : 34mn 25s
Bit rate : 16.3 Mbps
Width : 1 920 pixels
Height : 1 080 pixels
Display aspect ratio : 16:9
Frame rate mode : Variable
Frame rate : 23.976 fps
Color space : YUV
Chroma subsampling : 4:2:0
Bit depth : 8 bits
Scan type : Progressive
Bits/(Pixel*Frame) : 0.328
Stream size : 3.92 GiB (96%)
Audio
ID : 2
Format : AC-3
Format/Info : Audio Coding 3
Mode extension : CM (complete main)
Codec ID : A_AC3
Duration : 34mn 25s
Bit rate mode : Constant
Bit rate : 384 Kbps
Channel(s) : 6 channels
Channel positions : Front: L C R, Side: L R, LFE
Sampling rate : 44.1 KHz
Bit depth : 16 bits
Compression mode : Lossy
Stream size : 94.6 MiB (2%)
Menu
00:00:00.000 : :1. Super Junior - Mr. Simple
00:03:19.000 : :2. World Cities - Paris
00:07:07.000 : :3. Sports, Feel the Moments
00:11:01.000 : :4. G. Na - Top Girl
00:15:00.000 : :5. Summer Vacation
00:17:47.000 : :6. Flying Steps
00:20:36.000 : :7. Air
00:24:28.000 : :8. World of Warcraft
00:27:14.000 : :9. Worlds Cities "Barselona"
00:29:59.000 : :10. Sports Highlight
00:32:15.000 : :12. Shark

Скриншоты (ролик - скриншот)

Cover & Label


Благодарности релизеру (119)

Торрент:

Статус:

Размер:

Зарегистрирован   [ 2012-07-06 15:42 ]

проверено

4.1 GB

 
 Мнение о фильме (36)

Пред.  1, 2






Почему в фильмах не такое реалистичное 3D как в этих роликах?
 

Понравилось
 

Vzlard, дай им денег и будет такое 3D :)
 

egniko, Вот здесь сможешь все понять, удачи - http://torrents3d.ru/article/2095/
 

Спасибо большое! Давно хотел посмотреть настоящее 3D.
 

Отлично сделано спасибо, жаль что в фильмах так же не реализованы эффекты)
 

Очень эффектно.
 

StreetFighter, В десятку.Так же покупал телик.
 

Осена класиво! Позалуста!
 

Отличное 3Д!!!
 

super
 

Ну,что говорить...корейцы молодцы.У меня Samsung,но демо предпочитаю LG.Спасибо.
 

Глянул,обалдел и купил 42 дюйма,на 32LG не так хорошо смотрится,конечно на проекторе ещё лучше. Но ,кондуктор,нажми на тормоза!Деньги кончились,надо выходить.
 

очень круто
 

Спасибо отлично все!
 

класс! все понравилось! спасибо!
 

Страница 2 из 2

Пред.  1, 2