Торренты   
 
 


Фимфарум - В третий раз повезло в 3Д / Fimfarum - The Third Time Lucky 3D (Кристина Дуфкова) [Мультфильм, BDrip, 1080p, 2011 г., Anamorph OverUnder]

Рейтинг 3D:
1 голосов
6.0
Рейтинг фильма:
1 голосов
5.0
 
Вы должны быть авторизированы,
чтобы ставить оценки


Фимфарум - В третий раз повезло / Fimfarum - The Third Time Lucky
Год выпуска: 2011
Страна: Чехия
Студия: MAUR Film
Жанр: Мультфильм
Продолжительность: 01:15:43
Перевод: Отсутствует
Русские субтитры: есть
Режиссер на русском: Кристина Дуфкова
Описание: Фильм содержит сказки трех Янов Верика, каждый направленный одним художником. Первая история намеревается к горам Sumava в южной Богемии узнавать, жили ли Людоеды когда-либо там. Средний рассказ Шляпа и Небольшое Перо Сойки касаются короля, который посылает его трех сыновей, чтобы возвратить шляпу, которую он оставил в таверне, когда он был молод. Третья и самая долгая Причина сказки и Удача о двух достоинствах попытки названия доказать их важность, изменяя жизнь пастуха свиньи по имени Луи.
Качество: BDrip
Контейнер: MKV
Формат 3D: Half OverUnder / Вертикальная анаморфная стереопара
Порядок ракурсов: левый ракурс первый
Видео кодек: x264
Аудио кодек: AC3
Видео: MPEG-4 AVC, 16.0 Мбит/с, 1920x1080, 23.976 кадр/с
Аудио: Чешский (AC3, 6 ch, 640 Кбит/с), (DTS, 6 ch, 1510 Кбит/с)
Субтитры: Русские, англиские

MediaInfo

Общее
Уникальный идентификатор : 244154909310724926436644880532917657880 (0xB7AE866C5E425D579C18D0F7702F2118)
Полное имя : G:\Кино3Д\Fimfarum.V.tretij.raz.povezlo.3D.2011.x264.BDRip.1080p.mkv
Формат : Matroska
Версия формата : Version 2
Размер файла : 9,76 Гбайт
Продолжительность : 1 ч. 15 м.
Общий поток : 18,6 Мбит/сек
Название фильма : 3DRip-presents
Дата кодирования : UTC 2012-07-07 17:57:57
Программа кодирования : mkvmerge v3.4.0 ('Rapunzel') сборка от May 15 2010 09:38:20
Библиотека кодирования : libebml v0.8.0 + libmatroska v0.9.0
Видео
Идентификатор : 1
Формат : AVC
Формат/Информация : Advanced Video Codec
Профиль формата : High@L4.1
Параметр CABAC формата : Да
Параметр ReFrames формата : 2 кадра
Идентификатор кодека : V_MPEG4/ISO/AVC
Продолжительность : 1 ч. 15 м.
Битрейт : 16,0 Мбит/сек
Ширина : 1920 пикселей
Высота : 1080 пикселей
Соотношение сторон : 16:9
Частота кадров : 23,976 кадра/сек
Цветовое пространство : YUV
Субдискретизация насыщенности : 4:2:0
Битовая глубина : 8 бит
Тип развёртки : Прогрессивная
Бит/(Пиксели*Кадры) : 0.323
Размер потока : 8,43 Гбайт (86%)
Заголовок : 3Drip-by-kinozal.tv
Библиотека кодирования : x264 core
Default : Да
Forced : Нет
Основные цвета : BT.709-5, BT.1361, IEC 61966-2-4, SMPTE RP177
Характеристики трансфера : BT.709-5, BT.1361
Коэффициенты матрицы : BT.709-5, BT.1361, IEC 61966-2-4 709, SMPTE RP177
Аудио #1
Идентификатор : 2
Формат : AC-3
Формат/Информация : Audio Coding 3
Расширение режима : CM (complete main)
Параметр Endianness формата : Big
Идентификатор кодека : A_AC3
Продолжительность : 1 ч. 15 м.
Вид битрейта : Постоянный
Битрейт : 640 Кбит/сек
Каналы : 6 каналов
Расположение каналов : Front: L C R, Side: L R, LFE
Частота : 48,0 КГц
Битовая глубина : 16 бит
Метод сжатия : С потерями
Размер потока : 344 Мбайт (3%)
Заголовок : 3Drip-by-kinozal.tv
Default : Да
Forced : Нет
Аудио #2
Идентификатор : 3
Формат : DTS
Формат/Информация : Digital Theater Systems
Идентификатор кодека : A_DTS
Продолжительность : 1 ч. 15 м.
Вид битрейта : Постоянный
Битрейт : 1510 Кбит/сек
Каналы : 6 каналов
Расположение каналов : Front: L C R, Side: L R, LFE
Частота : 48,0 КГц
Битовая глубина : 24 бит
Метод сжатия : С потерями
Размер потока : 813 Мбайт (8%)
Заголовок : 3Drip-by-kinozal.tv
Default : Нет
Forced : Нет
Текст #1
Идентификатор : 4
Формат : UTF-8
Идентификатор кодека : S_TEXT/UTF8
Идентификатор кодека/Информация : UTF-8 Plain Text
Заголовок : 3Drip-by-kinozal.tv
Язык : Russian
Default : Да
Forced : Нет
Текст #2
Идентификатор : 5
Формат : VobSub
Режим смешивания : zlib
Идентификатор кодека : S_VOBSUB
Идентификатор кодека/Информация : The same subtitle format used on DVDs
Заголовок : 3Drip-by-kinozal.tv
Язык : English
Default : Нет
Forced : Нет
Меню
00:00:00.000 : en:(01)00:00:00:000
00:10:38.679 : en:(02)00:10:38:679
00:21:01.426 : en:(03)00:21:01:426
00:34:29.650 : en:(04)00:34:29:650
00:41:22.146 : en:(05)00:41:22:146
00:52:15.674 : en:(06)00:52:15:674
01:02:26.200 : en:(07)01:02:26:200
01:10:54.625 : en:(08)01:10:54:625
01:15:15.886 : en:(09)01:15:15:886

Скриншоты



Благодарности релизеру (3)

Торрент:

Статус:

Размер:

Зарегистрирован   [ 2012-07-09 21:15 ]

проверено

9.76 GB