Торренты   
 
 


Двигай время! / Los ilusionautas [2012 г., BDrip, 1080p, Anamorph OverUnder]

Рейтинг 3D:
4 голосов
5.2
Рейтинг фильма:
4 голосов
4.2
 
Вы должны быть авторизированы,
чтобы ставить оценки


© Закрыто правообладателем

Год выпуска: 2012
Страна: Франция Перу
Студии: Aronnax Animation Studios
Жанр: мультфильм, фэнтези, приключения, семейный
Продолжительность: 01:21:29
Перевод: Профессиональный (полное дублирование)-Режиссер: Эдуардо Шульдт
Сценарий: Кэти Борланд, Абрахам Вурнбранд
Продюсер: Хьюго Роуз, Абрахам Вурнбранд
Роли озвучивали: Актеры театра и кино-Описание:
Невероятные события потрясают Францию. Все герои знаменитых романов Жюля Верна ожили и, сами того не ведая, несут хаос и разрушения. А всё потому, что новый президент Франции и министр культуры задумали внести в романы великого писателя правки и перепутали там всё. Спасти ситуацию может лишь команда из 4-х одарённых детей, которые отправлены в прошлое, чтобы вернуть все истории в прежнее русло и поместить героев Жюля Верна обратно на страницы книг.-Проверено на встроенном плеере ТВ LG 42LW4500

-Качество: BDrip
Контейнер: MKV
Формат 3D: Anamorph OverUnder / Вертикальная анаморфная стереопара
Видео: AVC, 1920x1080, 23.976 кадр/сек, 14.5 Мбит/сек
Аудио 1: русский; AC3, 5.1, 640 Кбит/сек, 48,0 КГц |Дубляж|
Субтитры: отсутствуют

СКРИНШОТЫ

MI

Код:
Общее
Уникальный идентификатор                 : 247297648368668770449506363905284043506 (0xBA0BCB6C04A6ADBBA05E7923CD2CF2F2)
Полное имя                               : D:\3D-RuGroup\Мультфильмы\LosIlusionautas.3D.2012.BD3DRip.Half.OU.x264.AC3.3D-RuGroup.mkv
Формат                                   : Matroska
Версия формата                           : Version 2
Размер файла                             : 8,81 Гбайт
Продолжительность                        : 1 ч. 21 м.
Общий поток                              : 15,5 Мбит/сек
Название фильма                          : Los ilusionautas rip by 3D-RuGroup
Дата кодирования                         : UTC 2012-07-11 14:39:27
Программа кодирования                    : mkvmerge v3.4.0 ('Rapunzel') сборка от May 15 2010 09:38:20
Библиотека кодирования                   : libebml v0.8.0 + libmatroska v0.9.0
Видео
Идентификатор                            : 1
Формат                                   : AVC
Формат/Информация                        : Advanced Video Codec
Профиль формата                          : High@L4.1
Параметр CABAC формата                   : Да
Параметр ReFrames формата                : 4 кадра
Идентификатор кодека                     : V_MPEG4/ISO/AVC
Продолжительность                        : 1 ч. 21 м.
Битрейт                                  : 14,5 Мбит/сек
Ширина                                   : 1920 пикселей
Высота                                   : 1080 пикселей
Соотношение сторон                       : 16:9
Частота кадров                           : 23,976 кадра/сек
Цветовое пространство                    : YUV
Субдискретизация насыщенности            : 4:2:0
Битовая глубина                          : 8 бит
Тип развёртки                            : Прогрессивная
Бит/(Пиксели*Кадры)                      : 0.292
Размер потока                            : 8,27 Гбайт (94%)
Заголовок                                : Los ilusionautas rip by 3D-RuGroup
Библиотека кодирования                   : x264 core 116 r2074 2641b9e
Настройки программы                      : cabac=1 / ref=4 / deblock=1:-3:-3 / analyse=0x3:0x133 / me=umh / subme=9 / psy=1 / psy_rd=1.00:0.15 / mixed_ref=1 / me_range=32 / chroma_me=1 / trellis=2 / 8x8dct=1 / cqm=0 / deadzone=21,11 / fast_pskip=0 / chroma_qp_offset=-3 / threads=3 / sliced_threads=0 / nr=0 / decimate=1 / interlaced=0 / bluray_compat=0 / constrained_intra=0 / bframes=7 / b_pyramid=2 / b_adapt=2 / b_bias=0 / direct=3 / weightb=1 / open_gop=0 / weightp=2 / keyint=250 / keyint_min=23 / scenecut=40 / intra_refresh=0 / rc_lookahead=60 / rc=crf / mbtree=1 / crf=18.0 / qcomp=0.70 / qpmin=0 / qpmax=69 / qpstep=4 / vbv_maxrate=50000 / vbv_bufsize=50000 / crf_max=0.0 / nal_hrd=none / ip_ratio=1.40 / aq=1:0.70
Default                                  : Да
Forced                                   : Нет
Аудио
Идентификатор                            : 2
Формат                                   : AC-3
Формат/Информация                        : Audio Coding 3
Расширение режима                        : CM (complete main)
Идентификатор кодека                     : A_AC3
Продолжительность                        : 1 ч. 21 м.
Вид битрейта                             : Постоянный
Битрейт                                  : 640 Кбит/сек
Каналы                                   : 6 каналов
Расположение каналов                     : Front: L C R, Side: L R, LFE
Частота                                  : 48,0 КГц
Битовая глубина                          : 16 бит
Метод сжатия                             : С потерями
Размер потока                            : 373 Мбайт (4%)
Заголовок                                : Дубляж
Язык                                     : Russian
Default                                  : Да
Forced                                   : Нет
Меню
00:00:00.000                             : :01
00:08:59.831                             : :02
00:15:53.286                             : :03
00:23:55.643                             : :04
00:32:15.559                             : :05
00:39:46.843                             : :06
00:46:47.179                             : :07
00:56:04.069                             : :08
01:04:48.301                             : :09
01:11:13.311                             : :10
01:18:55.439                             : :11
Благодарности релизеру (7)

Торрент:

Статус:

Размер:

Зарегистрирован   [ 2012-07-11 19:16 ]

© закрыто правообладателем

8.81 GB

 
 Мнение о фильме (4)





такой херни давно не видел.
 

Спасибо. Так как мультик? Ребёнку психику не угробит?))
 

Думаю не угробит, малая (6 лет) смотрела его с удовольствием (в 2Д), мне вообще не понравился, видно что пытаются всячески выдвинуть объекты из экрана. А в остальном ничего хорошего. Топорно сделано, движение персонажей как в играх 7-8 летней давности.
 

За раздачу спасибо. 3D на троечку. А мультфильм полный отстой ребёнок даже не стал смотреть. Не советую качать, потерянное время только жалко...