Торренты   
 
 


Веселая коза: Легенды старой Праги 3D / Goat Story 3D (Ян Томанек / Jan Tomanek) [2008, мультфильм, фэнтези, комедия, семейный, BDrip, 1080p] Half OverUnder / Вертикальная анаморфная стереопара

Веселая коза: Легенды старой Праги / Goat Story / Kozí příběh - Pověsti staré Prahy
Год выпуска: 2008
Страна: Чехия
Жанр: мультфильм, фэнтези, комедия, семейный
Продолжительность: 01:21:53
Перевод: Профессиональный (многоголосый закадровый)
Русские субтитры: нет
Режиссер на русском: Ян Томанек
Режиссер на английском: Jan Tománek
В ролях:
коза-Иржи Лабус
Джимми-Матей Гадек
Кети-Магулена Бочанова
Маттиас-Михал Длоуги
Петр Пелцер-учитель Янус
Описание:
Эта необыкновенная история произошла в средневековой Праге. История о дружбе крестьянина Джимми и его козы. Вместе они приходят в город и встречают девушку Кети, хорошо знающую законы улицы. Джимми устраивается на работу часовым мастером и влюбляется в Кети, но своенравной козе это совсем не нравится!
Это история о спасении пражских астрономических часов, о любви и дружбе, предательстве и трусости. Главные герои попадут в Мистический дом Фауста, им предстоит встретиться с привидениями и дьявольщиной. Необыкновенные приключения друзей никого не оставят равнодушными!

-
- рейтинг MPAA-

-
-Качество: BDrip
Контейнер: MKV
Формат 3D: Half OverUnder / Вертикальная анаморфная стереопара
Порядок ракурсов: левый ракурс первый
Видео кодек: h.264
Аудио кодек: AC3
Видео: AVC / 1920х1080p / 23.976 fps / 8070 kbps
Аудио: Русский / AC3 / 48.0 KHz / 2.0 ch / 192Kbps (MVO)
Субтитры: отсутствуют

MediaInfo

Общее
Уникальный идентификатор : 171963530905191700605406340451807785861 (0x815EF8AA7A59F9FEBD7C0DFE0BB3F385)
Полное имя : E:\кино\Goat Story(3D)2008.halfOU.BDRip.AC3(MVO)1080p(m@rik05).mkv
Формат : Matroska
Версия формата : Version 2
Размер файла : 4,82 Гбайт
Продолжительность : 1 ч. 21 м.
Общий поток : 8430 Кбит/сек
Название фильма : Goat Story(3D)2008 rip by m@rik
Дата кодирования : UTC 2012-07-13 06:27:56
Программа кодирования : mkvmerge v3.4.0 ('Rapunzel') сборка от May 15 2010 09:38:20
Библиотека кодирования : libebml v0.8.0 + libmatroska v0.9.0
Видео
Идентификатор : 1
Формат : AVC
Формат/Информация : Advanced Video Codec
Профиль формата : High@L4.1
Параметр CABAC формата : Да
Параметр ReFrames формата : 4 кадра
Идентификатор кодека : V_MPEG4/ISO/AVC
Продолжительность : 1 ч. 21 м.
Битрейт : 8070 Кбит/сек
Ширина : 1920 пикселей
Высота : 1080 пикселей
Соотношение сторон : 16:9
Частота кадров : 23,976 кадра/сек
Цветовое пространство : YUV
Субдискретизация насыщенности : 4:2:0
Битовая глубина : 8 бит
Тип развёртки : Прогрессивная
Бит/(Пиксели*Кадры) : 0.162
Размер потока : 4,62 Гбайт (96%)
Заголовок : Веселая коза: Легенды старой Праги / Goat Story
Библиотека кодирования : x264 core 120 r2164 da19765
Настройки программы : cabac=1 / ref=4 / deblock=1:-3:-3 / analyse=0x3:0x133 / me=umh / subme=9 / psy=1 / psy_rd=1.00:0.15 / mixed_ref=1 / me_range=16 / chroma_me=1 / trellis=2 / 8x8dct=1 / cqm=0 / deadzone=21,11 / fast_pskip=1 / chroma_qp_offset=-3 / threads=6 / sliced_threads=0 / nr=0 / decimate=1 / interlaced=0 / bluray_compat=0 / constrained_intra=0 / bframes=6 / b_pyramid=2 / b_adapt=2 / b_bias=0 / direct=3 / weightb=1 / open_gop=0 / weightp=2 / keyint=250 / keyint_min=23 / scenecut=40 / intra_refresh=0 / rc_lookahead=60 / rc=crf / mbtree=1 / crf=18.0 / qcomp=0.70 / qpmin=0 / qpmax=69 / qpstep=4 / vbv_maxrate=40000 / vbv_bufsize=40000 / crf_max=0.0 / nal_hrd=none / ip_ratio=1.40 / aq=1:0.80
Язык : Chechen
Default : Да
Forced : Нет
Аудио
Идентификатор : 2
Формат : AC-3
Формат/Информация : Audio Coding 3
Расширение режима : CM (complete main)
Параметр Endianness формата : Big
Идентификатор кодека : A_AC3
Продолжительность : 1 ч. 21 м.
Вид битрейта : Постоянный
Битрейт : 192 Кбит/сек
Каналы : 2 канала
Расположение каналов : Front: L R
Частота : 48,0 КГц
Битовая глубина : 16 бит
Метод сжатия : С потерями
Размер потока : 112 Мбайт (2%)
Заголовок : veselaya koza(MVO)
Язык : Russian
Default : Да
Forced : Нет
Меню
00:00:00.000 : en:00:00:00.000
00:15:00.900 : en:00:15:00.900
00:30:01.800 : en:00:30:01.800
00:40:02.400 : en:00:40:02.400
00:55:03.300 : en:00:55:03.300
01:11:04.260 : en:01:11:04.260

Скриншоты


Комментарии:





На кинопоиске стоит ограничение до 13 лет я бы поставил до 18,такой мультфильм я своим детям не посоветовал бы.Фильм с элементами эротики и пошлятины.Уважаемые родители делайте сами выводы я вас предупредил!
 

Заголовок зачетный:)
Только зря трудился, 3Д фейковое, даже не конверт и не автоконверт а постоянный сдвиг ракурса по горизонтали и небольшое постоянное искажение нижней части кадра.

ГИФ анимация


А если смещение ракурса убрать, то останется только искажение:
 

Я думал студийный конверт объем такой как у Ронала варвара (никакой) я подумал если Роналу быть здесь то и сему рипу.
 

Объем есть, но он постоянный не зависимо от картинки:) в виде плоского листа в глубине монитора с нижним краем чуть ближе к зрителю, 2Д в глубь и наклонно. Сделать такой конверт легко в любом видеоредакторе, вставить два раза 2Д фильм в разные дорожки одно и то же, сдвинуть одну дорожку по горизонтали и применить к одной дорожки искажение "трапеция". Для разнообразия на 1-2 кадра задержку между ракурсами (дорожками) добавляют, это посложней :) фейк, всё же разнообразно объем меняется хоть тоже с действием сцены не связан.
В Ронале объем честный, это не конверт а рендеринг с двух виртуальных камер в 3Д прогах, но просто маленькая база между этими камерами и объем плосковатый вышел, тоже не понравился, да сейчас 60% фильмов конверт, а из 40% оставшихся честных половина "плоскодонок" в смысле с малой стереобазой, даже Обитель и Аватар с заниженной "толщиной" объема. С мультами лучше, они всегда в реал 3Д (кроме подделок о которых съемочная команда не знает), но плоских тоже много, это и Ронал и Монстр в Париже и ТинТин и Шреки 1-3, и т.д. нормальные: Ноч. стражи, Рождественские, и т.д. а есть и перебор местами с стереобазой как в Шевели ластами, а в Кукараче вообще местами глаза сломаешь.
 

а когда раздача будет
 

bodylau
Никогда. Это фейк, скрины тремя сообщениями выше. 2Д мульт 2008года когда ещё 3Д телеков не было, 3Д БлюРей и 3Д кинотеатров (кроме ИМАКС). В то время каждый новый 3Д фильм выходящий раз в год, был мировым событием.
 

Топик был перенесен из форума Мультфильмы в форум Архив

Zagruzin