Торренты   
 
 

 

3Д Погружение. Том 2: Магический подводный мир в 3Д / Dive 3D Vol 2: Magische Unterwasserwelten / Dive 3D Vol 2: Magical UnderWater World 3D [2011, BDrip, half1080p, Anamorph OverUnder]

Рейтинг 3D:
5 голосов
7.8
Рейтинг фильма:
3 голосов
5.7
 
Вы должны быть авторизированы,
чтобы ставить оценки


-3Д Погружение - Том 2:
Магический подводный мир
Dive 3D - Vol.2: Magische UnterwasserweltenDive 3D - Vol.2: Magical UnderWater World


Год выпуска: 2011
Страна: Германия (New KSM)
Жанр: Документальный, Видовой
Продолжительность: 01:00:18
Перевод: Отсутствует
Режиссер: Graham Wallington
Рассказчик: Graham Wallington
Описание: Подводная жизнь у берегов Мозамбика.--Dive 3D Vol.1 - тут Проверено на встроенном плейере ТВ Samsung UE-C7000--Формат 3d: Anamorph OverUnder
Качество: BDrip
Контейнер: MKV-Видео: AVC / 23,976 fps / 1920х1080p / 15.0 Mbps
Аудио: Английский / AC3 / 48 KHz / 2 ch / 448 Kbps
Субтитры: Отсутствуют

MediaInfo

General
UniqueID : 253283067919501035107396494197361657988 (0xBE8C8B63C732FAA5AE49436140EAC884)
Complete name : F:\Downloads\Dive3D.Vol2.MagischeUnterwasserwelten(3D)2011.halfOU(Ash61).mkv
Format : Matroska
File size : 6.66 GiB
Duration : 1h 0mn
Overall bit rate : 15.8 Mbps
Movie name : Dive 3D Vol2 - Magische Unterwasserwelten (3D) 2011 (by Ash61)
Encoded date : UTC 2012-07-13 08:50:09
Writing application : mkvmerge v3.4.0 ('Rapunzel') сборка от May 15 2010 09:38:20
Writing library : libebml v0.8.0 + libmatroska v0.9.0
Video
ID : 1
Format : AVC
Format/Info : Advanced Video Codec
Format profile : High@L4.1
Format settings, CABAC : Yes
Format settings, ReFrames : 4 frames
Codec ID : V_MPEG4/ISO/AVC
Duration : 1h 0mn
Bit rate : 15.0 Mbps
Width : 1 920 pixels
Height : 1 080 pixels
Display aspect ratio : 16:9
Frame rate : 23.976 fps
Color space : YUV
Chroma subsampling : 4:2:0
Bit depth : 8 bits
Scan type : Progressive
Bits/(Pixel*Frame) : 0.303
Stream size : 6.34 GiB (95%)
Title : BDrip by Ash61
Writing library : x264 core 119 r2106 07efeb4
Encoding settings : cabac=1 / ref=4 / deblock=1:-1:-1 / analyse=0x3:0x113 / me=umh / subme=9 / psy=1 / psy_rd=1.00:0.15 / mixed_ref=1 / me_range=16 / chroma_me=1 / trellis=2 / 8x8dct=1 / cqm=0 / deadzone=21,11 / fast_pskip=1 / chroma_qp_offset=-3 / threads=3 / sliced_threads=0 / nr=0 / decimate=1 / interlaced=0 / bluray_compat=0 / constrained_intra=0 / bframes=6 / b_pyramid=2 / b_adapt=2 / b_bias=0 / direct=3 / weightb=1 / open_gop=0 / weightp=2 / keyint=250 / keyint_min=23 / scenecut=40 / intra_refresh=0 / rc_lookahead=60 / rc=crf / mbtree=1 / crf=20.0 / qcomp=0.60 / qpmin=10 / qpmax=69 / qpstep=4 / vbv_maxrate=40000 / vbv_bufsize=40000 / crf_max=0.0 / nal_hrd=none / frame-packing=4 / ip_ratio=1.40 / aq=1:1.00
Audio
ID : 2
Format : AC-3
Format/Info : Audio Coding 3
Mode extension : CM (complete main)
Codec ID : A_AC3
Duration : 1h 0mn
Bit rate mode : Constant
Bit rate : 448 Kbps
Channel(s) : 2 channels
Channel positions : Front: L R
Sampling rate : 48.0 KHz
Bit depth : 16 bits
Compression mode : Lossy
Stream size : 193 MiB (3%)
Language : English
Menu
00:00:00.000 : :1
00:05:00.884 : :2
00:10:31.506 : :3
00:15:10.785 : :4
00:21:21.155 : :5
00:26:31.507 : :6
00:35:21.828 : :7
00:37:19.696 : :8
00:40:57.997 : :9
00:44:25.580 : :10
00:50:02.208 : :11
00:55:53.141 : :12

Скриншоты

Благодарности релизеру (9)

Торрент:

Статус:

Размер:

Зарегистрирован   [ 2012-07-13 17:19 ]

проверено

6.66 GB