Торренты   
 
 


Гнев Титанов / Wrath of the Titans (Джонатан Либесман) [2012 г., Anaglyph, red'cyan]

Рейтинг 3D:
56 голосов
6.6
Рейтинг фильма:
52 голосов
6.9
 
Вы должны быть авторизированы,
чтобы ставить оценки


Гнев Титанов / Wrath of the Titans
Год выпуска: 2012
Страна: США
Жанр: Фэнтези, Боевик, Приключения
Продолжительность: 01:39:31
Перевод: Профессиональный (полное дублирование)
Режиссер: Джонатан Либесман
Продюссер: Бэзил Иваник, Полли Коэн, Кевин Де Ла Ной, ...
Сценарий: Дэн Мазо, Дэвид Джонсон, Беверли Кросс, ...
Бюджет: $150 000 000
Премьера в мире: 28 марта 2012
В ролях: Сэм Уортингтон / Sam Worthington (Perseus), Лиам Нисон / Liam Neeson (Zeus), Рэйф Файнс / Ralph Fiennes (Hades), Эдгар Рамирез / Edgar Ramirez (Ares), Тоби Кеббелл / Toby Kebbell (Agenor), Розамунд Пайк / Rosamund Pike (Andromeda), Билл Найи / Bill Nighy (Hephaestus), Дэнни Хьюстон / Danny Houston (Poseidon), Джон Белл / John Bell (Helius), Лили Джеймс / Lily James (Korrina), Алехандро Нараньо / Alejandro Naranjo (Mantius), Freddy Drabble
Описание: Прошло десять лет после того, как Персей победил морское чудовище - Кракена, теперь он живет спокойной жизнью деревенского рыбака и воспитывает своего 10-летнего сына.
Тем временем, бушует борьба за превосходство между Богами и Титанами. Опасно ослабленные нехваткой человеческой любви и преданности, Боги теряют контроль над заключенными в тюрьму Титанами и их свирепым лидером, Кроносом, отцом правящих братьев Зевса, Аида и Посейдона. Давным-давно триумвират сверг своего сильного отца, отправив его гнить в мрачную пропасть Тартар, темницу, находящуюся в глубинах подземного мира.
Персей не может остаться в стороне, когда Аид вместе с сыном Зевса, Аресом, заключают сделку с Кроносом, чтобы вместе уничтожить Зевса. Сила Титанов становится ещё больше, в то время как Зевс теряет свою мощь и власть, а по Земле раскидывается ад подземного мира.
Вместе с Андромедой, полубогом Агенором, сыном Посейдона и низвергнутым богом Гефестом, Персей отправляется в опасное и отважное путешествие в подземный мир, чтобы спасти Зевса, свергнуть Титанов и сохранить людской род.
Качество: BDRip (1080p)
Формат: MKV
Формат 3d: Anaglyph
Цвета очков:

Видео кодек: x264
Аудио кодек: AC3
Видео: AVC / 23,976 fps / 1920х1080p / 21.6 Mbps
Аудио#1: Русский / AC3 Dolby Digital / 48 KHz / 448 kbps
Аудио#2: Украинский / AC3 Dolby Digital / 48 KHz / 448 kbps
Аудио#3: Английский / AC3 Dolby Digital / 48 KHz / 448 kbps

Скриншоты


-

MediaInfo

General
Unique ID : 215253664301262202062858385607269361989 (0xA1F0590790B9DAA9A228208534112945)
Complete name : L:\ФИЛЬМЫ\Wrath of the Titans 3D.mkv
Format : Matroska
Format version : Version 2
File size : 16.3 GiB
Duration : 1h 39mn
Overall bit rate : 23.4 Mbps
Encoded date : UTC 2012-07-15 00:34:17
Writing application : mkvmerge v3.4.0 ('Rapunzel') сборка от May 15 2010 09:38:20
Writing library : libebml v0.8.0 + libmatroska v0.9.0
Video
ID : 1
Format : AVC
Format/Info : Advanced Video Codec
Format profile : High@L4.1
Format settings, CABAC : Yes
Format settings, ReFrames : 4 frames
Codec ID : V_MPEG4/ISO/AVC
Duration : 1h 39mn
Bit rate : 21.6 Mbps
Width : 1 920 pixels
Height : 1 080 pixels
Display aspect ratio : 16:9
Frame rate : 23.976 fps
Color space : YUV
Chroma subsampling : 4:2:0
Bit depth : 8 bits
Scan type : Progressive
Bits/(Pixel*Frame) : 0.434
Stream size : 15.0 GiB (92%)
Title : Rip by SeRoGa00
Writing library : x264 core 125 r2200 999b753
Encoding settings : cabac=1 / ref=4 / deblock=1:-1:-1 / analyse=0x3:0x133 / me=umh / subme=9 / psy=1 / psy_rd=1.00:0.15 / mixed_ref=1 / me_range=16 / chroma_me=1 / trellis=2 / 8x8dct=1 / cqm=0 / deadzone=21,11 / fast_pskip=1 / chroma_qp_offset=-3 / threads=6 / lookahead_threads=1 / sliced_threads=0 / nr=0 / decimate=1 / interlaced=0 / bluray_compat=0 / constrained_intra=0 / bframes=6 / b_pyramid=2 / b_adapt=2 / b_bias=0 / direct=3 / weightb=1 / open_gop=0 / weightp=2 / keyint=250 / keyint_min=23 / scenecut=40 / intra_refresh=0 / rc_lookahead=60 / rc=crf / mbtree=1 / crf=18.0 / qcomp=0.60 / qpmin=10 / qpmax=69 / qpstep=4 / vbv_maxrate=40000 / vbv_bufsize=40000 / crf_max=0.0 / nal_hrd=none / ip_ratio=1.40 / aq=1:1.00
Language : English
Default : Yes
Forced : No
Audio #1
ID : 2
Format : AC-3
Format/Info : Audio Coding 3
Mode extension : CM (complete main)
Format settings, Endianness : Big
Codec ID : A_AC3
Duration : 1h 39mn
Bit rate mode : Constant
Bit rate : 448 Kbps
Channel(s) : 6 channels
Channel positions : Front: L C R, Side: L R, LFE
Sampling rate : 48.0 KHz
Bit depth : 16 bits
Compression mode : Lossy
Stream size : 319 MiB (2%)
Language : Russian
Default : Yes
Forced : No
Audio #2
ID : 3
Format : AC-3
Format/Info : Audio Coding 3
Mode extension : CM (complete main)
Format settings, Endianness : Big
Codec ID : A_AC3
Duration : 1h 39mn
Bit rate mode : Constant
Bit rate : 448 Kbps
Channel(s) : 6 channels
Channel positions : Front: L C R, Side: L R, LFE
Sampling rate : 48.0 KHz
Bit depth : 16 bits
Compression mode : Lossy
Stream size : 319 MiB (2%)
Language : Ukrainian
Default : No
Forced : No
Audio #3
ID : 4
Format : AC-3
Format/Info : Audio Coding 3
Mode extension : CM (complete main)
Format settings, Endianness : Big
Codec ID : A_AC3
Duration : 1h 39mn
Bit rate mode : Constant
Bit rate : 448 Kbps
Channel(s) : 6 channels
Channel positions : Front: L C R, Side: L R, LFE
Sampling rate : 48.0 KHz
Bit depth : 16 bits
Compression mode : Lossy
Stream size : 319 MiB (2%)
Language : English
Default : No
Forced : No
-
Остальные раздачи этого фильма (3)
Благодарности релизеру (5)

Торрент:

Статус:

Размер:

Зарегистрирован   [ 2012-08-06 03:21 ]

проверено

16.26 GB

 
 Мнение о фильме (11)





Как-то примитивно.
Я в смысле о смысловой нагрузке.
Не понравилось.
3d нормальное.
 

Неожиданно для меня самого - понравилось. Смысловой нагрузки конечно крайне мало но, проставленно всё не плохо. Чуть концовку слили, а так, на протяжении всего фильма, было вполне интересно. И это при том что первая часть мне не понравилась. Видимо под настроение попалось.
3Д не аховое но, смоттрибельно.
 

Ой блин... я правда не эту версию качал - я качал там где 22gb - найти не смог её в списке. Но, в принципе, думаю сути моего поста это не особо меняет. Там было 16:9 а здесь анаморф... скрины не показываются.
 

Я смотрел в обычном 2Д, а в 3Д не смотрел, очень понравился. Спасибо за раздачу!!!
 

на мой взгляд смысл есть. После просмотра предъидущей части все прояснилось)
 

уггу
 

не к тому фильму) извиняюсь)
 

На один раз
 

Семейный фильм на 1 вечер
 

Спасибо! В коллекцию)))
 

ok super