Торренты   
 
 

 

Оз: Великий и Ужасный в 3D, Трейлер / Oz: The Great and Powerful in 3D, Trailer [2013 г., DCPrip, Anamorph OverUnder]

Рейтинг 3D:
7 голосов
7.0
Рейтинг фильма:
7 голосов
8.0
 
Вы должны быть авторизированы,
чтобы ставить оценки


Оз: Великий и Ужасный в 3D, Трейлер
Oz: The Great and Powerful in 3D, Trailer
--Год выпуска: 2013
Страна: США
Жанр: фэнтези
Продолжительность: 00:01:46--Описание: Фильм расскажет историю одного из наиболее известных персонажей, созданных писателем Фрэнком Баумом. Когда ураган забрасывает циркового фокусника Оскара Диггса (Джеймс Франко) из пыльного Канзаса в волшебную страну Оз, склонный к мошенничеству циркач полагает, что он поймал удачу за хвост – ведь с помощью своих трюков он с легкостью может добыть в новых землях и славу, и богатство. Однако его ждёт встреча с тремя чародейками, Теодорой (Мила Кунис), Эванорой (Рейчел Уайз) и Глендой (Мишель Уильямс), которые сомневаются в том, тот ли это великий волшебник, появления которого ждали легковерные жители страны Оз. Пришелец поневоле оказывается втянутым в противостояние эпического масштаба, и ему приходится использовать весь свой «магический» арсенал, с добавлением толики настоящего волшебства. В ситуации выбора между Добром и Злом, Оскару Диггсу предстоит не только стать Великим и Ужасным Волшебником из Страны Оз, но и немного измениться к лучшему.--Формат 3d: Anamorph OverUnder (левый ракурс верхний)
Качество: DCPrip
Контейнер: mkv
Видео: AVC / 1920х1080 / 24 fps / 6601 Kbps
Аудио: Русский / AC3 / 6 ch / 448 Kbps / 48 KHz--

MediaInfo:

Код:
General
Unique ID                      : 209554055052849649685997190194912863442 (0x9DA6A498FCD30EB191E3CE05087CA4D2)
Complete name                  : L:\_3D\3D-Trailers\Trailer_OzTheGreatAndPowerful(3D)HalfOU-abq.mkv
Format                         : Matroska
Format version                 : Version 2
File size                      : 90.9 MiB
Duration                       : 1mn 46s
Overall bit rate               : 7 192 Kbps
Encoded date                   : UTC 2012-07-17 07:51:34
Writing application            : mkvmerge v4.0.0 ('The Stars were mine') сборка от Jun  6 2010 16:18:42
Writing library                : libebml v1.0.0 + libmatroska v1.0.0
Video
ID                             : 1
Format                         : AVC
Format/Info                    : Advanced Video Codec
Format profile                 : High@L4.1
Format settings, CABAC         : Yes
Format settings, ReFrames      : 4 frames
Codec ID                       : V_MPEG4/ISO/AVC
Duration                       : 1mn 46s
Bit rate                       : 6 601 Kbps
Width                          : 1 920 pixels
Height                         : 1 080 pixels
Display aspect ratio           : 16:9
Frame rate                     : 24.000 fps
Color space                    : YUV
Chroma subsampling             : 4:2:0
Bit depth                      : 8 bits
Scan type                      : Progressive
Bits/(Pixel*Frame)             : 0.133
Stream size                    : 83.4 MiB (92%)
Writing library                : x264 core 116 r2074 2641b9e
Encoding settings              : cabac=1 / ref=4 / deblock=1:-3:-3 / analyse=0x3:0x113 / me=umh / subme=9 / psy=1 / psy_rd=1.00:0.15 / mixed_ref=1 / me_range=16 / chroma_me=1 / trellis=2 / 8x8dct=1 / cqm=0 / deadzone=21,11 / fast_pskip=1 / chroma_qp_offset=-3 / threads=6 / sliced_threads=0 / nr=0 / decimate=1 / interlaced=0 / bluray_compat=0 / constrained_intra=0 / bframes=6 / b_pyramid=2 / b_adapt=2 / b_bias=0 / direct=3 / weightb=1 / open_gop=0 / weightp=2 / keyint=240 / keyint_min=24 / scenecut=40 / intra_refresh=0 / rc_lookahead=60 / rc=crf / mbtree=1 / crf=18.0 / qcomp=0.60 / qpmin=0 / qpmax=69 / qpstep=4 / vbv_maxrate=40000 / vbv_bufsize=40000 / crf_max=0.0 / nal_hrd=none / frame-packing=4 / ip_ratio=1.40 / aq=1:0.70
Language                       : English
Default                        : No
Forced                         : No
Audio
ID                             : 2
Format                         : AC-3
Format/Info                    : Audio Coding 3
Mode extension                 : CM (complete main)
Format settings, Endianness    : Big
Codec ID                       : A_AC3
Duration                       : 1mn 46s
Bit rate mode                  : Constant
Bit rate                       : 448 Kbps
Channel(s)                     : 6 channels
Channel positions              : Front: L C R, Side: L R, LFE
Sampling rate                  : 48.0 KHz
Bit depth                      : 16 bits
Compression mode               : Lossy
Stream size                    : 5.66 MiB (6%)
Language                       : Russian
Default                        : Yes
Forced                         : No

Скриншоты

Благодарности релизеру (12)

Торрент:

Статус:

Размер:

Зарегистрирован   [ 2012-07-17 12:02 ]

проверено

91 MB