Торренты   
 
 

 

Джунгли 3D - магия другого мира / Der Dschungel 3D - Zauber einer anderen Welt (Attila Tenki) [2012 г., BDrip, Anamorph OverUnder]

Рейтинг 3D:
7 голосов
8.7
Рейтинг фильма:
7 голосов
7.7
 
Вы должны быть авторизированы,
чтобы ставить оценки


Джунгли 3D - Магия другого мира
Der Dschungel 3D - Zauber einer anderen Welt


Год выпуска: 2012
Страна: Германия | KSM
Жанр: документальный
Продолжительность: 00:58:31
Перевод: Отсутствует
Режиссер: Attila Tenki
Описание: Вы отправитесь в увлекательное путешествие в джунгли Коста-Рики и попадете в волшебный мир не выходя из комнаты.
Качество: BDrip
Контейнер: MKV
Формат 3d: Anamorph OverUnder / Вертикальная анаморфная стереопара
Видео: AVC, 1920x1080, 23.976 кадр/сек, 15,8 Мбит/сек
Аудио 1: AC3, 5.1, 448 Кбит/сек, 48,0 КГц |Instrumental|
Аудио 2: AC3, 5.1, 448 Кбит/сек, 48,0 КГц |O-Ton|
Аудио 3: AC3, 5.1, 448 Кбит/сек, 48,0 КГц |German|Проверено на встроенном плеере ТВ LG 42LW4500

Скриншоты

MI

Код:
Общее
Уникальный идентификатор                 : 230142882534621481008186234721593001961 (0xAD23E82A57CBB0E9A32A8E5A9C2507E9)
Полное имя                               : G:\DerDschungel3DZauberEinerAnderenWelt.2012.BD3DRip.Half.OU.x264.AC3.3D-RuGroup.mkv
Формат                                   : Matroska
Версия формата                           : Version 2
Размер файла                             : 7,16 Гбайт
Продолжительность                        : 58 м.
Общий поток                              : 17,5 Мбит/сек
Название фильма                          : DerDschungel3DZauberEinerAnderen Welt.2012.BD3DRip.Half.OU.x264.AC3.3D-RuGroup
Дата кодирования                         : UTC 2012-07-20 15:10:09
Программа кодирования                    : mkvmerge v3.4.0 ('Rapunzel') сборка от May 15 2010 09:38:20
Библиотека кодирования                   : libebml v0.8.0 + libmatroska v0.9.0
Видео
Идентификатор                            : 1
Формат                                   : AVC
Формат/Информация                        : Advanced Video Codec
Профиль формата                          : High@L4.1
Параметр CABAC формата                   : Да
Параметр ReFrames формата                : 4 кадра
Идентификатор кодека                     : V_MPEG4/ISO/AVC
Продолжительность                        : 58 м.
Битрейт                                  : 15,8 Мбит/сек
Ширина                                   : 1920 пикселей
Высота                                   : 1080 пикселей
Соотношение сторон                       : 16:9
Частота кадров                           : 23,976 кадра/сек
Цветовое пространство                    : YUV
Субдискретизация насыщенности            : 4:2:0
Битовая глубина                          : 8 бит
Тип развёртки                            : Прогрессивная
Бит/(Пиксели*Кадры)                      : 0.318
Размер потока                            : 6,46 Гбайт (90%)
Заголовок                                : rip by itsamna aka elephant
Библиотека кодирования                   : x264 core 116 r2074 2641b9e
Настройки программы                      : cabac=1 / ref=4 / deblock=1:-3:-3 / analyse=0x3:0x133 / me=umh / subme=9 / psy=1 / psy_rd=1.00:0.15 / mixed_ref=1 / me_range=32 / chroma_me=1 / trellis=2 / 8x8dct=1 / cqm=0 / deadzone=21,11 / fast_pskip=0 / chroma_qp_offset=-3 / threads=3 / sliced_threads=0 / nr=0 / decimate=1 / interlaced=0 / bluray_compat=0 / constrained_intra=0 / bframes=7 / b_pyramid=2 / b_adapt=2 / b_bias=0 / direct=3 / weightb=1 / open_gop=0 / weightp=2 / keyint=250 / keyint_min=23 / scenecut=40 / intra_refresh=0 / rc_lookahead=60 / rc=crf / mbtree=1 / crf=18.0 / qcomp=0.70 / qpmin=0 / qpmax=69 / qpstep=4 / vbv_maxrate=50000 / vbv_bufsize=50000 / crf_max=0.0 / nal_hrd=none / ip_ratio=1.40 / aq=1:0.70
Default                                  : Да
Forced                                   : Нет
Аудио #1
Идентификатор                            : 2
Формат                                   : AC-3
Формат/Информация                        : Audio Coding 3
Расширение режима                        : CM (complete main)
Идентификатор кодека                     : A_AC3
Продолжительность                        : 58 м.
Вид битрейта                             : Постоянный
Битрейт                                  : 448 Кбит/сек
Каналы                                   : 6 каналов
Расположение каналов                     : Front: L C R, Side: L R, LFE
Частота                                  : 48,0 КГц
Битовая глубина                          : 16 бит
Метод сжатия                             : С потерями
Размер потока                            : 188 Мбайт (3%)
Заголовок                                : Instrumental
Default                                  : Да
Forced                                   : Нет
Аудио #2
Идентификатор                            : 3
Формат                                   : AC-3
Формат/Информация                        : Audio Coding 3
Расширение режима                        : CM (complete main)
Идентификатор кодека                     : A_AC3
Продолжительность                        : 58 м.
Вид битрейта                             : Постоянный
Битрейт                                  : 448 Кбит/сек
Каналы                                   : 6 каналов
Расположение каналов                     : Front: L C R, Side: L R, LFE
Частота                                  : 48,0 КГц
Битовая глубина                          : 16 бит
Метод сжатия                             : С потерями
Размер потока                            : 188 Мбайт (3%)
Заголовок                                : O-Ton
Default                                  : Нет
Forced                                   : Нет
Аудио #3
Идентификатор                            : 4
Формат                                   : AC-3
Формат/Информация                        : Audio Coding 3
Расширение режима                        : CM (complete main)
Идентификатор кодека                     : A_AC3
Продолжительность                        : 58 м.
Вид битрейта                             : Постоянный
Битрейт                                  : 448 Кбит/сек
Каналы                                   : 6 каналов
Расположение каналов                     : Front: L C R, Side: L R, LFE
Частота                                  : 48,0 КГц
Битовая глубина                          : 16 бит
Метод сжатия                             : С потерями
Размер потока                            : 188 Мбайт (3%)
Язык                                     : German
Default                                  : Нет
Forced                                   : Нет
Меню
00:00:00.000                             : :01
00:00:31.073                             : :02
00:12:04.974                             : :03
00:24:15.204                             : :04
00:39:37.709                             : :05
Благодарности релизеру (11)

Торрент:

Статус:

Размер:

Зарегистрирован   [ 2012-07-20 21:57 ]

проверено

7.16 GB

 
 Мнение о фильме (3)





3D- отличное. Фильм не шедевр,но отдыхающий, приятная музыка - вроде пргулялся по дхунглям и по берегу океана, и вспомнил песню Гудбай Америка и все красивые уголки планеты где я небуду НИКОГДА с нашим уровнем жизни. Автору спасибо за труды!
 

Видео замечательное, просто сказка. Спасибо за отлтчное настроение!
 

3D - хорошее. А вот сам фильм - впечатление такое, что снимали не в тропическом лесу, а где-то
в полузасохшей роще. Краски блёклые, эпизоды затянутые. Буйства природы нет и в помине. К просмотру не советую.