Торренты   
 
 

 

Скрытая жизнь дождевого леса / The Secret Life of the Rainforest [2011, BDrip, half1080p, Anamorph OverUnder]

Рейтинг 3D:
1 голосов
7.0
Рейтинг фильма:
1 голосов
7.0
 
Вы должны быть авторизированы,
чтобы ставить оценки


Скрытая жизнь дождевого леса
The Secret Life of the Rainforest
Год выпуска: 2011
Страна: Великобритания (Electric Sky Productions for Smithsonian Networks & SKY HD TV)
Жанр: Документальный
Продолжительность: 00:52:21
Перевод: Отсутствует
Режиссер: Julian Thomas
Рассказчик: James Lance
Описание: Данный фильм перенесёт нас вглубь тропического леса Центральной Америки. Нам покажут процесс исследования учёными острова Барро Колорадо в Панамском канале. Мы увидим красивейшие природные места и встретимся с красивыми, опасными и интереснейшими существами матушки природы.
От релизёра: Частично фильм снят в 2д (эти эпизоды реализованы в псевдо 3д). Фильм очень красивый!-- Проверено на встроенном плейере ТВ Samsung UE-C7000--Формат 3d: Anamorph OverUnder
Качество: BDrip
Контейнер: MKV-Видео: AVC / 23,976 fps / 1920х1080p / 19.8 Mbps
Аудио: Английский / AC3 / 48 KHz / 5.1 ch / 640 Kbps
Субтитры: Отсутствуют

MediaInfo

General
UniqueID : 185383919527592293894133903067824705240 (0x8B77A4E926BAFB86BD8EC0537C5ECED8)
Complete name : F:\Downloads\TheSecretLifeOfTheRainforest(3D)2011.halfOU.Eng(Ash61).mkv
Format : Matroska
File size : 7.61 GiB
Duration : 52mn 21s
Overall bit rate : 20.8 Mbps
Movie name : The Secret Life of the Rainforest (3D) 2011 (by Ash61)
Encoded date : UTC 2012-07-20 10:02:35
Writing application : mkvmerge v3.4.0 ('Rapunzel') сборка от May 15 2010 09:38:20
Writing library : libebml v0.8.0 + libmatroska v0.9.0
Video
ID : 1
Format : AVC
Format/Info : Advanced Video Codec
Format profile : High@L4.1
Format settings, CABAC : Yes
Format settings, ReFrames : 4 frames
Codec ID : V_MPEG4/ISO/AVC
Duration : 52mn 21s
Bit rate : 19.8 Mbps
Width : 1 920 pixels
Height : 1 080 pixels
Display aspect ratio : 16:9
Frame rate : 23.976 fps
Color space : YUV
Chroma subsampling : 4:2:0
Bit depth : 8 bits
Scan type : Progressive
Bits/(Pixel*Frame) : 0.397
Stream size : 7.23 GiB (95%)
Title : BDrip by Ash61
Writing library : x264 core 119 r2106 07efeb4
Encoding settings : cabac=1 / ref=4 / deblock=1:-3:-3 / analyse=0x3:0x113 / me=umh / subme=9 / psy=1 / psy_rd=1.00:0.15 / mixed_ref=1 / me_range=16 / chroma_me=1 / trellis=2 / 8x8dct=1 / cqm=0 / deadzone=21,11 / fast_pskip=1 / chroma_qp_offset=-3 / threads=3 / sliced_threads=0 / nr=0 / decimate=1 / interlaced=0 / bluray_compat=0 / constrained_intra=0 / bframes=6 / b_pyramid=2 / b_adapt=2 / b_bias=0 / direct=3 / weightb=1 / open_gop=0 / weightp=2 / keyint=250 / keyint_min=23 / scenecut=40 / intra_refresh=0 / rc_lookahead=60 / rc=crf / mbtree=1 / crf=18.0 / qcomp=0.60 / qpmin=10 / qpmax=51 / qpstep=4 / vbv_maxrate=40000 / vbv_bufsize=40000 / crf_max=0.0 / nal_hrd=none / frame-packing=4 / ip_ratio=1.40 / aq=1:0.70
Audio
ID : 2
Format : AC-3
Format/Info : Audio Coding 3
Mode extension : CM (complete main)
Codec ID : A_AC3
Duration : 52mn 21s
Bit rate mode : Constant
Bit rate : 640 Kbps
Channel(s) : 6 channels
Channel positions : Front: L C R, Side: L R, LFE
Sampling rate : 48.0 KHz
Bit depth : 16 bits
Compression mode : Lossy
Stream size : 240 MiB (3%)
Language : English
Menu
00:00:00.000 : :1
00:11:44.370 : :2
00:15:02.235 : :3
00:23:02.006 : :4
00:32:29.865 : :5
00:41:57.056 : :6
Благодарности релизеру (6)

Торрент:

Статус:

Размер:

Зарегистрирован   [ 2012-07-20 22:19 ]

проверено

7.61 GB