Торренты   
 
 


Сафари (Диски 1 - 4) / Safari (Discs 1 - 4) [2011, BDrip, half1080p, Anamorph OverUnder]

Рейтинг 3D:
Пока никто не голосовал
Рейтинг фильма:
Пока никто не голосовал
 
Вы должны быть авторизированы,
чтобы ставить оценки


Сафари (Диски 1 - 4)
Safari (Discs 1 - 4)
Год выпуска: 2011
Студия: WildEarthSafari.tv
Жанр: Документальный
Продолжительность: (01:27:35) х 4
Перевод: Отсутствует
Продюсер: Craig Carnaby
Ведущие: Marc Weiner, Tara Pirie, Patrick Gumede
Описание: Повседневная жизнь диких животных Африки.
Доп. информация: Развитие релиза Safari Lexikon (включая его, только здесь на английском).
Раздача в четырёх файлах - можно качать выборочно.-- Проверено на встроенном плейере ТВ Samsung UE-C7000--Формат 3d: Anamorph OverUnder
Качество: BDrip
Контейнер: MKV-Видео: AVC / 23,976 fps / 1920х1080p / 12.4 ... 15.2 Mbps
Аудио: Английский / AC3 / 48 KHz / 2 ch / 448 Kbps
Субтитры: Отсутствуют

MediaInfo

Disc 1

General
UniqueID : 205508971441849187560877239157261471911 (0x9A9B9693E1EB7B65A9D2250CC24210A7)
Complete name : F:\Downloads\Safari.Discs1-4(3D)2011.halfOU.Eng(Ash61)\Safari.Disc1(3D)2011.halfOU.Eng(Ash61).mkv
Format : Matroska
File size : 8.18 GiB
Duration : 1h 27mn
Overall bit rate : 13.4 Mbps
Movie name : Safari - Disc 1 (3D) 2011 (by Ash61)
Encoded date : UTC 2012-07-23 08:58:59
Writing application : mkvmerge v3.4.0 ('Rapunzel') сборка от May 15 2010 09:38:20
Writing library : libebml v0.8.0 + libmatroska v0.9.0
Video
ID : 1
Format : AVC
Format/Info : Advanced Video Codec
Format profile : High@L4.1
Format settings, CABAC : Yes
Format settings, ReFrames : 4 frames
Codec ID : V_MPEG4/ISO/AVC
Duration : 1h 27mn
Bit rate : 12.7 Mbps
Width : 1 920 pixels
Height : 1 080 pixels
Display aspect ratio : 16:9
Frame rate : 23.976 fps
Color space : YUV
Chroma subsampling : 4:2:0
Bit depth : 8 bits
Scan type : Progressive
Bits/(Pixel*Frame) : 0.255
Stream size : 7.75 GiB (95%)
Title : BDrip by Ash61
Writing library : x264 core 119 r2106 07efeb4
Encoding settings : cabac=1 / ref=4 / deblock=1:-1:-1 / analyse=0x3:0x113 / me=umh / subme=9 / psy=1 / psy_rd=1.00:0.15 / mixed_ref=1 / me_range=16 / chroma_me=1 / trellis=2 / 8x8dct=1 / cqm=0 / deadzone=21,11 / fast_pskip=1 / chroma_qp_offset=-3 / threads=3 / sliced_threads=0 / nr=0 / decimate=1 / interlaced=0 / bluray_compat=0 / constrained_intra=0 / bframes=6 / b_pyramid=2 / b_adapt=2 / b_bias=0 / direct=3 / weightb=1 / open_gop=0 / weightp=2 / keyint=250 / keyint_min=23 / scenecut=40 / intra_refresh=0 / rc_lookahead=60 / rc=crf / mbtree=1 / crf=20.0 / qcomp=0.60 / qpmin=10 / qpmax=51 / qpstep=4 / vbv_maxrate=40000 / vbv_bufsize=40000 / crf_max=0.0 / nal_hrd=none / frame-packing=4 / ip_ratio=1.40 / aq=1:0.70
Audio
ID : 2
Format : AC-3
Format/Info : Audio Coding 3
Mode extension : CM (complete main)
Codec ID : A_AC3
Duration : 1h 27mn
Bit rate mode : Constant
Bit rate : 448 Kbps
Channel(s) : 2 channels
Channel positions : Front: L R
Sampling rate : 48.0 KHz
Bit depth : 16 bits
Compression mode : Lossy
Stream size : 281 MiB (3%)
Language : English
Menu
00:00:00.000 : :1. Часть 1
00:07:59.000 : :2
00:16:12.450 : :3
00:23:11.490 : :4
00:29:11.600 : :5. Часть 2
00:36:53.200 : :6
00:44:47.150 : :7
00:53:20.460 : :8
00:58:23.350 : :9. Часть 3
01:06:08.560 : :10
01:15:15.400 : :11
01:20:11.900 : :12

Disc 2

General
UniqueID : 203992531658664061382328338040865839772 (0x99778852EBD8A0FDAFFC1027DF665A9C)
Complete name : F:\Downloads\Safari.Discs1-4(3D)2011.halfOU.Eng(Ash61)\Safari.Disc2(3D)2011.halfOU.Eng(Ash61).mkv
Format : Matroska
File size : 8.00 GiB
Duration : 1h 27mn
Overall bit rate : 13.1 Mbps
Movie name : Safari - Disc 2 (3D) 2011 (by Ash61)
Encoded date : UTC 2012-07-23 09:31:36
Writing application : mkvmerge v3.4.0 ('Rapunzel') сборка от May 15 2010 09:38:20
Writing library : libebml v0.8.0 + libmatroska v0.9.0
Video
ID : 1
Format : AVC
Format/Info : Advanced Video Codec
Format profile : High@L4.1
Format settings, CABAC : Yes
Format settings, ReFrames : 4 frames
Codec ID : V_MPEG4/ISO/AVC
Duration : 1h 27mn
Bit rate : 12.4 Mbps
Width : 1 920 pixels
Height : 1 080 pixels
Display aspect ratio : 16:9
Frame rate : 23.976 fps
Color space : YUV
Chroma subsampling : 4:2:0
Bit depth : 8 bits
Scan type : Progressive
Bits/(Pixel*Frame) : 0.249
Stream size : 7.57 GiB (95%)
Title : BDrip by Ash61
Writing library : x264 core 119 r2106 07efeb4
Encoding settings : cabac=1 / ref=4 / deblock=1:-1:-1 / analyse=0x3:0x113 / me=umh / subme=9 / psy=1 / psy_rd=1.00:0.15 / mixed_ref=1 / me_range=16 / chroma_me=1 / trellis=2 / 8x8dct=1 / cqm=0 / deadzone=21,11 / fast_pskip=1 / chroma_qp_offset=-3 / threads=3 / sliced_threads=0 / nr=0 / decimate=1 / interlaced=0 / bluray_compat=0 / constrained_intra=0 / bframes=6 / b_pyramid=2 / b_adapt=2 / b_bias=0 / direct=3 / weightb=1 / open_gop=0 / weightp=2 / keyint=250 / keyint_min=23 / scenecut=40 / intra_refresh=0 / rc_lookahead=60 / rc=crf / mbtree=1 / crf=20.0 / qcomp=0.60 / qpmin=10 / qpmax=51 / qpstep=4 / vbv_maxrate=40000 / vbv_bufsize=40000 / crf_max=0.0 / nal_hrd=none / frame-packing=4 / ip_ratio=1.40 / aq=1:0.70
Audio
ID : 2
Format : AC-3
Format/Info : Audio Coding 3
Mode extension : CM (complete main)
Codec ID : A_AC3
Duration : 1h 27mn
Bit rate mode : Constant
Bit rate : 448 Kbps
Channel(s) : 2 channels
Channel positions : Front: L R
Sampling rate : 48.0 KHz
Bit depth : 16 bits
Compression mode : Lossy
Stream size : 281 MiB (3%)
Language : English
Menu
00:00:00.000 : :1. Часть 1
00:06:31.082 : :2
00:17:51.011 : :3
00:24:39.585 : :4
00:29:11.607 : :5. Часть 2
00:36:39.846 : :6
00:48:01.568 : :7
00:52:54.194 : :8
00:58:23.397 : :9. Часть 3
01:04:14.998 : :10
01:14:54.553 : :11
01:23:22.394 : :12

Disc 3

General
UniqueID : 230678520325493277376999963062062922428 (0xAD8B1125BE8392F997A4AFB2B1C5BABC)
Complete name : F:\Downloads\Safari.Discs1-4(3D)2011.halfOU.Eng(Ash61)\Safari.Disc3(3D)2011.halfOU.Eng(Ash61).mkv
Format : Matroska
File size : 9.76 GiB
Duration : 1h 27mn
Overall bit rate : 15.9 Mbps
Movie name : Safari - Disc 3 (3D) 2011 (by Ash61)
Encoded date : UTC 2012-07-23 10:06:42
Writing application : mkvmerge v3.4.0 ('Rapunzel') сборка от May 15 2010 09:38:20
Writing library : libebml v0.8.0 + libmatroska v0.9.0
Video
ID : 1
Format : AVC
Format/Info : Advanced Video Codec
Format profile : High@L4.1
Format settings, CABAC : Yes
Format settings, ReFrames : 4 frames
Codec ID : V_MPEG4/ISO/AVC
Duration : 1h 27mn
Bit rate : 15.2 Mbps
Width : 1 920 pixels
Height : 1 080 pixels
Display aspect ratio : 16:9
Frame rate : 23.976 fps
Color space : YUV
Chroma subsampling : 4:2:0
Bit depth : 8 bits
Scan type : Progressive
Bits/(Pixel*Frame) : 0.305
Stream size : 9.29 GiB (95%)
Title : BDrip by Ash61
Writing library : x264 core 119 r2106 07efeb4
Encoding settings : cabac=1 / ref=4 / deblock=1:-1:-1 / analyse=0x3:0x113 / me=umh / subme=9 / psy=1 / psy_rd=1.00:0.15 / mixed_ref=1 / me_range=16 / chroma_me=1 / trellis=1 / 8x8dct=1 / cqm=0 / deadzone=21,11 / fast_pskip=1 / chroma_qp_offset=-3 / threads=3 / sliced_threads=0 / nr=0 / decimate=1 / interlaced=0 / bluray_compat=0 / constrained_intra=0 / bframes=6 / b_pyramid=2 / b_adapt=2 / b_bias=0 / direct=3 / weightb=1 / open_gop=0 / weightp=2 / keyint=250 / keyint_min=23 / scenecut=40 / intra_refresh=0 / rc_lookahead=60 / rc=crf / mbtree=1 / crf=20.0 / qcomp=0.60 / qpmin=10 / qpmax=51 / qpstep=4 / vbv_maxrate=40000 / vbv_bufsize=40000 / crf_max=0.0 / nal_hrd=none / frame-packing=4 / ip_ratio=1.40 / aq=1:0.70
Audio
ID : 2
Format : AC-3
Format/Info : Audio Coding 3
Mode extension : CM (complete main)
Codec ID : A_AC3
Duration : 1h 27mn
Bit rate mode : Constant
Bit rate : 448 Kbps
Channel(s) : 2 channels
Channel positions : Front: L R
Sampling rate : 48.0 KHz
Bit depth : 16 bits
Compression mode : Lossy
Stream size : 281 MiB (3%)
Language : English
Menu
00:00:00.000 : :1. Часть 1
00:06:52.520 : :2
00:15:34.000 : :3
00:23:43.029 : :4
00:29:11.607 : :5. Часть 2
00:35:56.886 : :6
00:42:29.737 : :7
00:51:05.210 : :8
00:58:23.397 : :9. Часть 3
01:08:14.571 : :10
01:13:19.417 : :11
01:22:36.139 : :12

Disc 4

General
UniqueID : 194623693908001377919431055324756879109 (0x926B28F5A8D98A57B964F9653948A705)
Complete name : F:\Downloads\Safari.Discs1-4(3D)2011.halfOU.Eng(Ash61)\Safari.Disc4(3D)2011.halfOU.Eng(Ash61).mkv
Format : Matroska
File size : 9.63 GiB
Duration : 1h 27mn
Overall bit rate : 15.7 Mbps
Movie name : Safari - Disc 4 (3D) 2011 (by Ash61)
Encoded date : UTC 2012-07-23 10:54:06
Writing application : mkvmerge v3.4.0 ('Rapunzel') сборка от May 15 2010 09:38:20
Writing library : libebml v0.8.0 + libmatroska v0.9.0
Video
ID : 1
Format : AVC
Format/Info : Advanced Video Codec
Format profile : High@L4.1
Format settings, CABAC : Yes
Format settings, ReFrames : 4 frames
Codec ID : V_MPEG4/ISO/AVC
Duration : 1h 27mn
Bit rate : 15.0 Mbps
Width : 1 920 pixels
Height : 1 080 pixels
Display aspect ratio : 16:9
Frame rate : 23.976 fps
Color space : YUV
Chroma subsampling : 4:2:0
Bit depth : 8 bits
Scan type : Progressive
Bits/(Pixel*Frame) : 0.301
Stream size : 9.17 GiB (95%)
Title : BDrip by Ash61
Writing library : x264 core 119 r2106 07efeb4
Encoding settings : cabac=1 / ref=4 / deblock=1:-1:-1 / analyse=0x3:0x113 / me=umh / subme=9 / psy=1 / psy_rd=1.00:0.15 / mixed_ref=1 / me_range=16 / chroma_me=1 / trellis=1 / 8x8dct=1 / cqm=0 / deadzone=21,11 / fast_pskip=1 / chroma_qp_offset=-3 / threads=3 / sliced_threads=0 / nr=0 / decimate=1 / interlaced=0 / bluray_compat=0 / constrained_intra=0 / bframes=6 / b_pyramid=2 / b_adapt=2 / b_bias=0 / direct=3 / weightb=1 / open_gop=0 / weightp=2 / keyint=250 / keyint_min=23 / scenecut=40 / intra_refresh=0 / rc_lookahead=60 / rc=crf / mbtree=1 / crf=20.0 / qcomp=0.60 / qpmin=10 / qpmax=51 / qpstep=4 / vbv_maxrate=40000 / vbv_bufsize=40000 / crf_max=0.0 / nal_hrd=none / frame-packing=4 / ip_ratio=1.40 / aq=1:0.70
Audio
ID : 2
Format : AC-3
Format/Info : Audio Coding 3
Mode extension : CM (complete main)
Codec ID : A_AC3
Duration : 1h 27mn
Bit rate mode : Constant
Bit rate : 448 Kbps
Channel(s) : 2 channels
Channel positions : Front: L R
Sampling rate : 48.0 KHz
Bit depth : 16 bits
Compression mode : Lossy
Stream size : 281 MiB (3%)
Language : English
Menu
00:00:00.000 : :1. Часть 1
00:07:50.828 : :2
00:16:29.304 : :3
00:22:28.788 : :4
00:29:11.607 : :5. Часть 2
00:38:01.219 : :6
00:45:46.183 : :7
00:52:39.304 : :8
00:58:23.397 : :9. Часть 3
01:05:32.033 : :10
01:12:54.267 : :11
01:20:59.334 : :12
Благодарности релизеру (1)

Торрент:

Статус:

Размер:

Зарегистрирован   [ 2012-07-23 20:28 ]

* не проверено

35.57 GB