Торренты   
 
 

 

Камасутра 3D / Kamasutra 3D (2012) BDRip 1080p (Амир Эссади) [2012 г., Anamorph OverUnder]

Рейтинг 3D:
6 голосов
7.7
Рейтинг фильма:
5 голосов
7.2
 
Вы должны быть авторизированы,
чтобы ставить оценки


Камасутра 3D / Kamasutra 3D (2012) BDRip 1080p
Год выпуска: 2012
Страна: США, Германия
Жанр: Эротика, документальный
Продолжительность: 00:47:11
Перевод: Отсутствует
Субтитры: Англ., Герм., Франц., Исп.
Режиссер: Амир Эссади
Описание: Начальное пособие для малоопытных. Никогда еще ! не был таким объемным! Впервые вы сможете не только почитать, но и посмотреть Камасутру В ФОРМАТЕ 3D! Ответы на вопросы, которые вы стеснялись задать. Любовные игры и позы, которые даже не приходили вам в голову. Техники, которые выведут вас на новый уровень. Это и многое другое подробно в книге и наглядно в невероятно красивом фильме в трехмерном изображении.
Формат 3d: Anamorph OverUnder
Видео: h264, 1920x1080, 40 Mbps, ReFrames 2
Аудио: AC3, 640 Kbps, 5.1 (Английский)

MI

Format : Matroska
Format version : Version 2
File size : 13.4 GiB
Duration : 47mn 11s
Overall bit rate : 40.7 Mbps
Movie name : Kamasutra 3D.Title4.Bluray3DRip
Encoded date : UTC 2012-07-23 22:10:58
Writing application : mkvmerge v5.7.0 ('The Whirlwind') built on Jul 8 2012 19:19:57
Writing library : libebml v1.2.3 + libmatroska v1.3.0
Video
ID : 1
Format : AVC
Format/Info : Advanced Video Codec
Format profile : High@L5.1
Format settings, CABAC : Yes
Format settings, ReFrames : 2 frames
Muxing mode : Header stripping
Codec ID : V_MPEG4/ISO/AVC
Duration : 47mn 11s
Bit rate : 39.3 Mbps
Width : 1 920 pixels
Height : 1 080 pixels
Display aspect ratio : 16:9
Frame rate : 23.976 fps
Color space : YUV
Chroma subsampling : 4:2:0
Bit depth : 8 bits
Scan type : Progressive
Bits/(Pixel*Frame) : 0.790
Stream size : 12.9 GiB (96%)
Writing library : x264 core
Default : Yes
Forced : No
Color primaries : BT.709-5, BT.1361, IEC 61966-2-4, SMPTE RP177
Transfer characteristics : BT.709-5, BT.1361
Matrix coefficients : BT.709-5, BT.1361, IEC 61966-2-4 709, SMPTE RP177
Audio
ID : 2
Format : AC-3
Format/Info : Audio Coding 3
Mode extension : CM (complete main)
Muxing mode : Header stripping
Codec ID : A_AC3
Duration : 47mn 11s
Bit rate mode : Constant
Bit rate : 640 Kbps
Channel(s) : 6 channels
Channel positions : Front: L C R, Side: L R, LFE
Sampling rate : 48.0 KHz
Bit depth : 16 bits
Compression mode : Lossy
Stream size : 216 MiB (2%)
Default : Yes
Forced : No
Text #1
ID : 3
Format : VobSub
Muxing mode : zlib
Codec ID : S_VOBSUB
Codec ID/Info : The same subtitle format used on DVDs
Language : English
Default : Yes
Forced : No
Text #2
ID : 4
Format : VobSub
Muxing mode : zlib
Codec ID : S_VOBSUB
Codec ID/Info : The same subtitle format used on DVDs
Language : German
Default : No
Forced : No
Text #3
ID : 5
Format : VobSub
Muxing mode : zlib
Codec ID : S_VOBSUB
Codec ID/Info : The same subtitle format used on DVDs
Language : French
Default : No
Forced : No
Text #4
ID : 6
Format : VobSub
Muxing mode : zlib
Codec ID : S_VOBSUB
Codec ID/Info : The same subtitle format used on DVDs
Language : Spanish
Default : No
Forced : No
Menu
00:00:00.000 : en:(01)00:00:00:000
Благодарности релизеру (25)

Торрент:

Статус:

Размер:

Зарегистрирован   [ 2012-07-24 03:11 ]

* не проверено

13.42 GB