Торренты   
 
 

 

Уличные танцы 2 в 3Д / Street Dance 2 3D (Макс Джива / Дания Пасквини/ Max Giwa/ Dania Pasquini) [2012, мелодрама, музыка, BDrip,Z-MAN, 1080p]Ac3.eng.rus(лицензия). Anamorph SideBySide

Рейтинг 3D:
12 голосов
7.6
Рейтинг фильма:
12 голосов
5.9
 
Вы должны быть авторизированы,
чтобы ставить оценки


Уличные танцы 2 / Street Dance 2
«В два раза больше энергии и страсти»
Год выпуска: 2012
Страна: Германия , Великобритания
Жанр: мелодрама, музыка
Продолжительность: 01:24:56
Перевод: Профессиональный (дублированный) лицензия
Русские субтитры: нет
Режиссер на русском: Макс Джива / Дания Пасквини
Режиссер на английском: Max Giwa/ Dania Pasquini
В ролях: София Бутелла, Джордж Сэмпсон, Том Конти, Фальк Хеншел, Стефани Нгуйен, Элла Рэгг, Джоанна Джеффрис, Джеймс Майкл Ранкин, Ли Крэвен, Элизабетта Ди Карло
Описание: Уличный танцор Эш жаждет реванша за проигрыш на конкурсе Streetdance, и хочет собрать команду, которой не будет равных. В поисках, которые забрасывают его в самые разные уголки мира, Эш встречает девушку Еву, танцующую сальсу, и влюбляется в нее. В Еве он видит свое счастье, свой собственный танец, свою победу… Но завоевать сердце этой девушки не так просто.
Свобода самовыражения и мастерство импровизации, страсть сальсы и дерзость ринга — все это танцы, танцы, танцы — в школах, в клубах, на улицах Рима, Парижа, Лондона, Нью-Йорка.--

--Дополнительная информация по релизу: релиз от z-man
Качество: BDrip
Контейнер: MKV
Формат 3D: Anamorph SideBySide / Горизонтальная анаморфная стереопара
Порядок ракурсов: левый ракурс первый
Видео кодек: x264
Аудио кодек: AC3
Видео: AVC / 1920х1080p / 23,976 fps / 13,2 Mbps
Аудио 1: Русский / AC3 / 48 KHz / 5.1 ch / 384 Kbps / Dub
Аудио 2: Английский / AC3 / 48 KHz / 5.1 ch / 448 Kbps (оригинал)
Субтитры: нет

MediaInfo

Общее
Уникальный идентификатор : 235282761964565603097606262803954823578 (0xB101CFC9615993A0B62923CEE306719A)
Полное имя : E:\кино\Streetdance.2.2012.3D.H-SBS.Rus(Dub).ENG.AC3.1080p.Bluray.x264.z-man.mkv
Формат : Matroska
Версия формата : Version 2
Размер файла : 8,48 Гбайт
Продолжительность : 1 ч. 24 м.
Общий поток : 14,3 Мбит/сек
Дата кодирования : UTC 2012-07-25 11:54:25
Программа кодирования : mkvmerge v3.4.0 ('Rapunzel') сборка от May 15 2010 09:38:20
Библиотека кодирования : libebml v0.8.0 + libmatroska v0.9.0
Видео
Идентификатор : 1
Формат : AVC
Формат/Информация : Advanced Video Codec
Профиль формата : High@L4.1
MultiView_Count : 2
MultiView_Layout : Right Eye
Параметр CABAC формата : Да
Параметр ReFrames формата : 4 кадра
Идентификатор кодека : V_MPEG4/ISO/AVC
Продолжительность : 1 ч. 24 м.
Битрейт : 13,2 Мбит/сек
Ширина : 1920 пикселей
Высота : 1080 пикселей
Соотношение сторон : 16:9
Частота кадров : 23,976 кадра/сек
Цветовое пространство : YUV
Субдискретизация насыщенности : 4:2:0
Битовая глубина : 8 бит
Тип развёртки : Прогрессивная
Бит/(Пиксели*Кадры) : 0.265
Размер потока : 7,82 Гбайт (92%)
Заголовок : Streetdance.2.2012.3D.H-SBS.ENG.DTS.1080p.Bluray.x264.z-man
Библиотека кодирования : x264 core 125 r2208 d9d2288
Настройки программы : cabac=1 / ref=4 / deblock=1:-3:-3 / analyse=0x3:0x113 / me=umh / subme=7 / psy=1 / psy_rd=1.00:0.15 / mixed_ref=1 / me_range=16 / chroma_me=1 / trellis=1 / 8x8dct=1 / cqm=0 / deadzone=21,11 / fast_pskip=1 / chroma_qp_offset=-3 / threads=18 / lookahead_threads=3 / sliced_threads=0 / nr=0 / decimate=1 / interlaced=0 / bluray_compat=0 / constrained_intra=0 / bframes=3 / b_pyramid=2 / b_adapt=1 / b_bias=0 / direct=3 / weightb=1 / open_gop=0 / weightp=2 / keyint=250 / keyint_min=23 / scenecut=40 / intra_refresh=0 / rc_lookahead=40 / rc=crf / mbtree=1 / crf=18.0 / qcomp=0.60 / qpmin=10 / qpmax=69 / qpstep=4 / ip_ratio=1.40 / aq=1:1.00
Язык : English
Default : Нет
Forced : Нет
Аудио #1
Идентификатор : 2
Формат : AC-3
Формат/Информация : Audio Coding 3
Расширение режима : CM (complete main)
Параметр Endianness формата : Big
Идентификатор кодека : A_AC3
Продолжительность : 1 ч. 24 м.
Вид битрейта : Постоянный
Битрейт : 384 Кбит/сек
Каналы : 6 каналов
Расположение каналов : Front: L C R, Side: L R, LFE
Частота : 48,0 КГц
Битовая глубина : 16 бит
Метод сжатия : С потерями
Задержка видео : 900 мс.
Размер потока : 233 Мбайт (3%)
Заголовок : DUB
Язык : Russian
Default : Да
Forced : Да
Аудио #2
Идентификатор : 3
Формат : AC-3
Формат/Информация : Audio Coding 3
Расширение режима : CM (complete main)
Параметр Endianness формата : Big
Идентификатор кодека : A_AC3
Продолжительность : 1 ч. 24 м.
Вид битрейта : Постоянный
Битрейт : 448 Кбит/сек
Каналы : 6 каналов
Расположение каналов : Front: L C R, Side: L R, LFE
Частота : 48,0 КГц
Битовая глубина : 16 бит
Метод сжатия : С потерями
Размер потока : 272 Мбайт (3%)
Заголовок : Original
Язык : English
Default : Нет
Forced : Нет
Меню
00:00:00.000 : en:00:00:00.000
00:10:29.796 : en:00:10:29.796
00:16:55.973 : en:00:16:55.973
00:22:43.612 : en:00:22:43.612
00:29:28.058 : en:00:29:28.058
00:38:23.968 : en:00:38:23.968
00:43:38.115 : en:00:43:38.115
00:49:39.059 : en:00:49:39.059
00:57:08.759 : en:00:57:08.759
01:02:48.014 : en:01:02:48.014
01:07:11.903 : en:01:07:11.903
01:13:45.296 : en:01:13:45.296

Скриншоты

25.07.2012 - Релиз обновлён,русская дорога заменена на лицензию. Желающие, скачайте заново торрент-файл.
Остальные раздачи этого фильма (3)
Благодарности релизеру (2)

Торрент:

Статус:

Размер:

Зарегистрирован   [ 2012-07-25 17:04 ]

проверено

8.48 GB

 
 Мнение о фильме (4)





За раздачу спасибо! А сам фильм....ну...как сказать-фильм..скорее мюзикл) Мне,да и жене не понравился совершенно: то ли я в сказки верить перестал, то ли снято ну совершенно не реалистично. На протяжении всего фильма возникало чувство,что меня разводят, как маленького дитёнка)))Ездить на лоурайдах (пару машин было вообще эксклюзивных), микшеры по 5 тыр, аккустика того-же покроя....и это всё при постоянном упоминании, какие же они бедные, и как им смертельно необходимо выиграть денежку на тубе(( Ах да!!! Они же все официантами трудятся)))Причём настолько блатными,что умудряются "обслуживать" самые кошерные вечерухи) Чувство подставы и обмана не покидало весь процесс просмотра. Что же касается 3Д, то он жутко посредственнен.Мне кажется что он был "прилеплен" для конкретного продвижения в массы( Ни глубины,ни вылетов- одним словом : ПЕЧАЛЬБЕДА) П.С. Да не даст мне соврать жена: я, без просмотра демки, буквально через 15 минут рассказал,чем всё закончится)И не ошибся((
 

Фильм мне понравился! Красивый видеоряд, отличное изображение, объемность 3D замечательная! звук и сама музыка прекрасные. Ставлю твердую 9 - тку по 10-ти балльной шкале. Смотрел на телевизоре LG 42 LM 761S.
 

Фильм интересный!3D отличное,качество изображения на высоте!!!
 

Спасибо! легкий фильм