Торренты   
 
 


Лоракс / Dr. Seuss' The Lorax (Крис Рено, Кайл Балда) [2012 г., SideBySide]

Рейтинг 3D:
Пока никто не голосовал
Рейтинг фильма:
Пока никто не голосовал
 
Вы должны быть авторизированы,
чтобы ставить оценки


Лоракс / Dr. Seuss' The Lorax
Год выпуска: 2012
Страна: США, Illumination Entertainment
Жанр: Мультфильм, фэнтези, семейный
Продолжительность: 01:26:18
Перевод: Профессиональный (полное дублирование)
Режиссер: Крис Рено, Кайл Балда
В ролях: Дэнни ДеВито, Эд Хелмс, Зак Эфрон, Тейлор Свифт, Бетти Уайт, Роб Риггл, Дженни Слейт, Назим Пэдрад, Джоэл Светов, Майкл Битти
Описание: Недалекое будущее. Стоит нажать на кнопку — и мир изменится по твоему желанию: прямо под окном вырастут горы, во дворе зашумит океан. Единственная неприятность — все вокруг сделано из пластика. Но для влюбленного нет преград. Одно желание прекрасной девушки — увидеть последнее живое дерево — и он пускается в путь. На помощь ему приходит могущественный, но слегка приставучий Лоракс.
Формат 3d: SideBySide
Видео: MPEG-4 AVC, 7325 Кбит/с, 1920x1080
Аудио: Русский (AC3, 6 ch, 384 Кбит/с), английский (DTS, 6 ch, 1510 Кбит/с)
Видеоряд от z-man.

MI

General
Unique ID : 192408227814401088799858338794664629812 (0x90C07A0C400ECA4CA72AFA912E481634)
Complete name : D:\Downloads\Loraks-3D.2012.x264.BDRip(1080p).mkv
Format : Matroska
Format version : Version 3 / Version 2
File size : 5.67 GiB
Duration : 1h 26mn
Overall bit rate : 9 406 Kbps
Writing application : mkvmerge v5.7.0 ('The Whirlwind') built on Jul 8 2012 20:08:51
Writing library : libebml v1.2.3 + libmatroska v1.3.0
Video
ID : 1
Format : AVC
Format/Info : Advanced Video Codec
Format profile : High@L4.1
MultiView_Count : 2
MultiView_Layout : Side by Side (left eye first)
Format settings, CABAC : Yes
Format settings, ReFrames : 4 frames
Format settings, GOP : M=4, N=32
Codec ID : V_MPEG4/ISO/AVC
Duration : 1h 26mn
Bit rate : 7 325 Kbps
Width : 1 920 pixels
Height : 1 080 pixels
Display aspect ratio : 16:9
Frame rate : 23.976 fps
Color space : YUV
Chroma subsampling : 4:2:0
Bit depth : 8 bits
Scan type : Progressive
Bits/(Pixel*Frame) : 0.147
Stream size : 4.42 GiB (78%)
Writing library : x264 core 125 r2208 d9d2288
Encoding settings : cabac=1 / ref=4 / deblock=1:-3:-3 / analyse=0x3:0x113 / me=umh / subme=9 / psy=1 / psy_rd=1.00:0.15 / mixed_ref=1 / me_range=16 / chroma_me=1 / trellis=1 / 8x8dct=1 / cqm=0 / deadzone=21,11 / fast_pskip=1 / chroma_qp_offset=-3 / threads=18 / lookahead_threads=3 / sliced_threads=0 / nr=0 / decimate=1 / interlaced=0 / bluray_compat=0 / constrained_intra=0 / bframes=3 / b_pyramid=2 / b_adapt=1 / b_bias=0 / direct=3 / weightb=1 / open_gop=0 / weightp=2 / keyint=250 / keyint_min=23 / scenecut=40 / intra_refresh=0 / rc_lookahead=40 / rc=crf / mbtree=1 / crf=18.0 / qcomp=0.60 / qpmin=10 / qpmax=69 / qpstep=4 / ip_ratio=1.40 / aq=1:1.00
Language : English
Audio #1
ID : 2
Format : AC-3
Format/Info : Audio Coding 3
Mode extension : CM (complete main)
Codec ID : A_AC3
Duration : 1h 26mn
Bit rate mode : Constant
Bit rate : 384 Kbps
Channel(s) : 6 channels
Channel positions : Front: L C R, Side: L R, LFE
Sampling rate : 48.0 KHz
Bit depth : 16 bits
Compression mode : Lossy
Stream size : 237 MiB (4%)
Language : Russian
Audio #2
ID : 3
Format : DTS
Format/Info : Digital Theater Systems
Codec ID : A_DTS
Duration : 1h 26mn
Bit rate mode : Constant
Bit rate : 1 510 Kbps
Channel(s) : 6 channels
Channel positions : Front: L C R, Side: L R, LFE
Sampling rate : 48.0 KHz
Bit depth : 24 bits
Compression mode : Lossy
Stream size : 932 MiB (16%)
Language : English
Menu
00:00:00.000 : en:00:00:00.000
00:04:13.003 : en:00:04:13.003
00:06:38.481 : en:00:06:38.481
00:10:04.771 : en:00:10:04.771
00:13:56.127 : en:00:13:56.127
00:16:39.874 : en:00:16:39.874
00:21:30.414 : en:00:21:30.414
00:28:18.488 : en:00:28:18.488
00:32:49.176 : en:00:32:49.176
00:39:49.554 : en:00:39:49.554
00:42:26.419 : en:00:42:26.419
00:45:45.034 : en:00:45:45.034
00:51:21.578 : en:00:51:21.578
00:56:32.848 : en:00:56:32.848
00:59:07.836 : en:00:59:07.836
01:03:18.461 : en:01:03:18.461
01:07:13.821 : en:01:07:13.821
01:12:35.726 : en:01:12:35.726
01:16:05.102 : en:01:16:05.102
01:20:23.402 : en:01:20:23.402

Скриншоты



Комментарии:

1, 2  След.






[/
 

Погнали городских!!!!!!!!!!!!!!!!!!!!!!!!
 

Спасибо !!! Еще бы скорости ...
 

MediaInfo

General
Unique ID : 192408227814401089199858338794664629812 (0x90C07A0C400ECA4CA72AFA912E481634)
Complete name : D:\Downloads\Loraks-3D.2012.x264.BDRip(1080p).mkv
Format : Matroska
Format version : Version 3 / Version 2
File size : 5.67 GiB
Duration : 1h 26mn
Overall bit rate : 9 406 Kbps
Movie name : --SCHUMAHER--
Encoded date : UTC 2012-07-28 17:20:11
Writing application : mkvmerge v5.7.0 ('The Whirlwind') built on Jul 8 2012 20:08:51
Writing library : libebml v1.2.3 + libmatroska v1.3.0
Video
ID : 1
Format : AVC
Format/Info : Advanced Video Codec
Format profile : High@L4.1
MultiView_Count : 2
MultiView_Layout : Side by Side (left eye first)
Format settings, CABAC : Yes
Format settings, ReFrames : 4 frames
Format settings, GOP : M=4, N=32
Codec ID : V_MPEG4/ISO/AVC
Duration : 1h 26mn
Bit rate : 7 325 Kbps
Width : 1 920 pixels
Height : 1 080 pixels
Display aspect ratio : 16:9
Frame rate : 23.976 fps
Color space : YUV
Chroma subsampling : 4:2:0
Bit depth : 8 bits
Scan type : Progressive
Bits/(Pixel*Frame) : 0.147
Stream size : 4.42 GiB (78%)
Writing library : x264 core 125 r2208 d9d2288
Encoding settings : cabac=1 / ref=4 / deblock=1:-3:-3 / analyse=0x3:0x113 / me=umh / subme=9 / psy=1 / psy_rd=1.00:0.15 / mixed_ref=1 / me_range=16 / chroma_me=1 / trellis=1 / 8x8dct=1 / cqm=0 / deadzone=21,11 / fast_pskip=1 / chroma_qp_offset=-3 / threads=18 / lookahead_threads=3 / sliced_threads=0 / nr=0 / decimate=1 / interlaced=0 / bluray_compat=0 / constrained_intra=0 / bframes=3 / b_pyramid=2 / b_adapt=1 / b_bias=0 / direct=3 / weightb=1 / open_gop=0 / weightp=2 / keyint=250 / keyint_min=23 / scenecut=40 / intra_refresh=0 / rc_lookahead=40 / rc=crf / mbtree=1 / crf=18.0 / qcomp=0.60 / qpmin=10 / qpmax=69 / qpstep=4 / ip_ratio=1.40 / aq=1:1.00
Language : English
Audio #1
ID : 2
Format : AC-3
Format/Info : Audio Coding 3
Mode extension : CM (complete main)
Codec ID : A_AC3
Duration : 1h 26mn
Bit rate mode : Constant
Bit rate : 384 Kbps
Channel(s) : 6 channels
Channel positions : Front: L C R, Side: L R, LFE
Sampling rate : 48.0 KHz
Bit depth : 16 bits
Compression mode : Lossy
Stream size : 237 MiB (4%)
Language : Russian
Audio #2
ID : 3
Format : DTS
Format/Info : Digital Theater Systems
Codec ID : A_DTS
Duration : 1h 26mn
Bit rate mode : Constant
Bit rate : 1 510 Kbps
Channel(s) : 6 channels
Channel positions : Front: L C R, Side: L R, LFE
Sampling rate : 48.0 KHz
Bit depth : 24 bits
Compression mode : Lossy
Stream size : 932 MiB (16%)
Language : English
Menu
00:00:00.000 : en:00:00:00.000
00:04:13.003 : en:00:04:13.003
00:06:38.481 : en:00:06:38.481
00:10:04.771 : en:00:10:04.771
00:13:56.127 : en:00:13:56.127
00:16:39.874 : en:00:16:39.874
00:21:30.414 : en:00:21:30.414
00:28:18.488 : en:00:28:18.488
00:32:49.176 : en:00:32:49.176
00:39:49.554 : en:00:39:49.554
00:42:26.419 : en:00:42:26.419
00:45:45.034 : en:00:45:45.034
00:51:21.578 : en:00:51:21.578
00:56:32.848 : en:00:56:32.848
00:59:07.836 : en:00:59:07.836
01:03:18.461 : en:01:03:18.461
01:07:13.821 : en:01:07:13.821
01:12:35.726 : en:01:12:35.726
01:16:05.102 : en:01:16:05.102
01:20:23.402 : en:01:20:23.402
За фильм спасибо.
 

Мульт прикольный , красочный , картинка супер и 3D отлично!!! Автору спасибо за труды!
 

цыигвиив snake21 пожалуйсто!
 

Спасибо!!!
 

Спасибо!!!
 

Смелый
ты с источником ничего не напутал? парень ты, как всем известно, мутный. так что источник, я считаю, находится тут. http://www.3dtorrents.org/index.php?page=torrent-details&id=1d447191cb5e20202c1b4b5a693a7d9c10440624
и размер, как ни странно, один в один сходится.
 

Спасибо за мульт, хоть что то новое вышло за последнее время.
 

satmer, Stargazer, Serhios200
Пожалуйсто парни, рад поделиться новинкой!
 

что то странно, что рип по моей ссылке и твой байт в байт сходятся. какое совпадение! вот медиа инфо того рипа:
F:Loraks-3D.2012.x264.BDRip(1080p).mkv
General
Complete name : F:Loraks-3D.2012.x264.BDRip(1080p).mkv
Format : Matroska
File size : 5.67 GiB
Duration : 1h 26mn
Overall bit rate : 9 406 Kbps
Movie name : --SCHUMAHER--
Encoded date : UTC 2012-07-28 17:20:11
Writing application : mkvmerge v5.7.0 ('The Whirlwind'wink.gif built on Jul 8 2012 20:08:51
Writing library : libebml v1.2.3 + libmatroska v1.3.0
Video #1
ID : 1
Format : AVC
Format/Info : Advanced Video Codec
Format profile : High@L4.1
Format settings, CABAC : Yes
Format settings, ReFrames : 4 frames
Format settings, GOP : M=4, N=16
Muxing mode : Container profile=Unknown@4.1
Codec ID : V_MPEG4/ISO/AVC
Duration : 1h 26mn
Bit rate : 7 325 Kbps
Width : 1 920 pixels
Height : 1 080 pixels
Display aspect ratio : 16:9
Frame rate : 23.976 fps
Color space : YUV
Chroma subsampling : 4:2:0
Bit depth : 8 bits
Scan type : Progressive
Bits/(Pixel*Frame) : 0.147
Stream size : 4.42 GiB (78%)
Writing library : x264 core 125 r2208 d9d2288
Encoding settings : cabac=1 / ref=4 / deblock=1:-3:-3 / analyse=0x3:0x113 / me=umh / subme=9 / psy=1 / psy_rd=1.00:0.15 / mixed_ref=1 / me_range=16 / chroma_me=1 / trellis=1 / 8x8dct=1 / cqm=0 / deadzone=21,11 / fast_pskip=1 / chroma_qp_offset=-3 / threads=18 / lookahead_threads=3 / sliced_threads=0 / nr=0 / decimate=1 / interlaced=0 / bluray_compat=0 / constrained_intra=0 / bframes=3 / b_pyramid=2 / b_adapt=1 / b_bias=0 / direct=3 / weightb=1 / open_gop=0 / weightp=2 / keyint=250 / keyint_min=23 / scenecut=40 / intra_refresh=0 / rc_lookahead=40 / rc=crf / mbtree=1 / crf=18.0 / qcomp=0.60 / qpmin=10 / qpmax=69 / qpstep=4 / ip_ratio=1.40 / aq=1:1.00
Audio #2
ID : 2
Format : AC-3
Format/Info : Audio Coding 3
Mode extension : CM (complete main)
Codec ID : A_AC3
Duration : 1h 26mn
Bit rate mode : Constant
Bit rate : 384 Kbps
Channel(s) : 6 channels
Channel positions : Front: L C R, Side: L R, LFE
Sampling rate : 48.0 KHz
Stream size : 237 MiB (4%)
Language : Russian
Audio #3
ID : 3
Format : DTS
Format/Info : Digital Theater Systems
Codec ID : A_DTS
Duration : 1h 26mn
Bit rate mode : Constant
Bit rate : 1 510 Kbps
Channel(s) : 6 channels
Channel positions : Front: L C R, Side: L R, LFE
Sampling rate : 48.0 KHz
Bit depth : 24 bits
Stream size : 932 MiB (16%)
Language : English
найдите хоть одно отличие
 

Смелый
Спасибо! А то совсем затишье) Ждём ещё новинок)
 

Видеоряд от z-man. он построение делал, написано же в описании, будь внимательнее!
 

Аnатоliy052
ну так даже если так (нам не видно там надо регистрироваться), почему никто не выкладывает(
 

anton036 следущим будет Люди в чёрном3, ведём переговоры по преобретению диска 3D-BD
 

Аnатоliy052
ну так даже если так (нам не видно там надо регистрироваться), почему никто не выкладывает(
ссылу надо давать на источник откуда скачал, а не рекламировать свой мутный сайт.
 

Смелый
ой как обрадывали!))) будем ждать)
 

anton036 следущим будет Люди в чёрном3, ведём переговоры по преобретению диска 3D-BD
неужто быстрее чем на блюберде появится фильм в 3Д у вас? аха, хотелось бы верить.
 

удачи тебе , браток. не забудь при размещении поста источник правильный указать.
 

Страница 1 из 2

1, 2  След.