Торренты   
 
 


Лоракс / Dr. Seuss' The Lorax (Крис Рено, Кайл Балд) [2012 г., Anamorph OverUnder]

Рейтинг 3D:
Пока никто не голосовал
Рейтинг фильма:
Пока никто не голосовал
 
Вы должны быть авторизированы,
чтобы ставить оценки


Лоракс / Dr. Seuss' The Lorax
Год выпуска: 2012
Страна: США
Жанр: Мультфильм, фэнтези, семейный
Продолжительность: 01:26:18
Перевод: Профессиональный (полное дублирование)
Режиссер: Крис Рено, Кайл Балд
В ролях: Дэнни ДеВито, Эд Хелмс, Зак Эфрон, Тейлор Свифт, Бетти Уайт, Роб Риггл, Дженни Слейт, Назим Пэдрад, Джоэл Светов, Майкл Битти
Описание: Недалекое будущее. Стоит нажать на кнопку — и мир изменится по твоему желанию: прямо под окном вырастут горы, во дворе зашумит океан. Единственная неприятность — все вокруг сделано из пластика. Но для влюбленного нет преград. Одно желание прекрасной девушки — увидеть последнее живое дерево — и он пускается в путь. На помощь ему приходит могущественный, но слегка приставучий Лоракс.
Формат 3d: Anamorph OverUnder
Качество: BDrip
Контейнер: MKV
Видео: MPEG-4 AVC, 17.9 Мбит/с, 1920x1080, 23.976 кадр/с
Аудио: Русский (AC3, 6 ch, 384 Кбит/с), английский (DTS, 6 ch, 1510 Кбит/с), украинский (AC3, 2 ch, 384 Кбит/с)
Субтитры: Русские

MediaInfo

Общее
Уникальный идентификатор : 171634405323350064933598902790289888942 (0x811F95859B6F573880DE1CE8F3AC16AE)
Полное имя : G:\Кино3Д\Loraks.3D.2012.x264.BDRip(1080p).mkv
Формат : Matroska
Версия формата : Version 2
Размер файла : 13,3 Гбайт
Продолжительность : 1 ч. 32 м.
Общий поток : 20,5 Мбит/сек
Название фильма : 3DRip
Дата кодирования : UTC 2012-07-29 17:26:59
Программа кодирования : mkvmerge v3.4.0 ('Rapunzel') сборка от May 15 2010 09:38:20
Библиотека кодирования : libebml v0.8.0 + libmatroska v0.9.0
Видео
Идентификатор : 1
Формат : AVC
Формат/Информация : Advanced Video Codec
Профиль формата : High@L4.1
Параметр CABAC формата : Да
Параметр ReFrames формата : 2 кадра
Идентификатор кодека : V_MPEG4/ISO/AVC
Продолжительность : 1 ч. 32 м.
Битрейт : 17,9 Мбит/сек
Ширина : 1920 пикселей
Высота : 1080 пикселей
Соотношение сторон : 16:9
Частота кадров : 23,976 кадра/сек
Цветовое пространство : YUV
Субдискретизация насыщенности : 4:2:0
Битовая глубина : 8 бит
Тип развёртки : Прогрессивная
Бит/(Пиксели*Кадры) : 0.359
Размер потока : 11,6 Гбайт (87%)
Заголовок : 3DRip-by-Kinozal.TV
Библиотека кодирования : x264 core
Default : Да
Forced : Нет
Основные цвета : BT.709-5, BT.1361, IEC 61966-2-4, SMPTE RP177
Характеристики трансфера : BT.709-5, BT.1361
Коэффициенты матрицы : BT.709-5, BT.1361, IEC 61966-2-4 709, SMPTE RP177
Аудио #1
Идентификатор : 2
Формат : AC-3
Формат/Информация : Audio Coding 3
Расширение режима : CM (complete main)
Параметр Endianness формата : Big
Идентификатор кодека : A_AC3
Продолжительность : 1 ч. 32 м.
Вид битрейта : Постоянный
Битрейт : 384 Кбит/сек
Каналы : 6 каналов
Расположение каналов : Front: L C R, Side: L R, LFE
Частота : 48,0 КГц
Битовая глубина : 16 бит
Метод сжатия : С потерями
Размер потока : 255 Мбайт (2%)
Заголовок : 3DRip-by-Kinozal.TV
Язык : Russian
Default : Да
Forced : Нет
Аудио #2
Идентификатор : 3
Формат : AC-3
Формат/Информация : Audio Coding 3
Расширение режима : CM (complete main)
Параметр Endianness формата : Big
Идентификатор кодека : A_AC3
Продолжительность : 1 ч. 32 м.
Вид битрейта : Постоянный
Битрейт : 384 Кбит/сек
Каналы : 2 канала
Расположение каналов : Front: L R
Частота : 48,0 КГц
Битовая глубина : 16 бит
Метод сжатия : С потерями
Размер потока : 255 Мбайт (2%)
Заголовок : 3DRip-by-Kinozal.TV
Язык : Ukrainian
Default : Нет
Forced : Нет
Аудио #3
Идентификатор : 4
Формат : DTS
Формат/Информация : Digital Theater Systems
Идентификатор кодека : A_DTS
Продолжительность : 1 ч. 32 м.
Вид битрейта : Постоянный
Битрейт : 1510 Кбит/сек
Каналы : 6 каналов
Расположение каналов : Front: L C R, Side: L R, LFE
Частота : 48,0 КГц
Битовая глубина : 24 бит
Метод сжатия : С потерями
Размер потока : 1001 Мбайт (7%)
Заголовок : 3DRip-by-Kinozal.TV
Язык : English
Default : Нет
Forced : Нет
Текст
Идентификатор : 5
Формат : VobSub
Режим смешивания : zlib
Идентификатор кодека : S_VOBSUB
Идентификатор кодека/Информация : The same subtitle format used on DVDs
Заголовок : 3DRip-by-Kinozal.TV
Язык : Russian
Default : Да
Forced : Нет
Меню
00:00:00.000 : en:(01)00:00:00:000
00:04:13.253 : en:(02)00:04:13:253
00:06:38.898 : en:(03)00:06:38:898
00:10:05.396 : en:(04)00:10:05:396
00:13:56.961 : en:(05)00:13:56:961
00:16:40.874 : en:(06)00:16:40:874
00:21:31.707 : en:(07)00:21:31:707
00:28:20.198 : en:(08)00:28:20:198
00:32:51.135 : en:(09)00:32:51:135
00:39:51.931 : en:(10)00:39:51:931
00:42:28.963 : en:(11)00:42:28:963
00:45:47.786 : en:(12)00:45:47:786
00:51:24.664 : en:(13)00:51:24:664
00:56:36.226 : en:(14)00:56:36:226
00:59:11.381 : en:(15)00:59:11:381
01:03:22.256 : en:(16)01:03:22:256
01:07:17.867 : en:(17)01:07:17:867
01:12:40.064 : en:(18)01:12:40:064
01:16:09.648 : en:(19)01:16:09:648
01:20:28.240 : en:(20)01:20:28:240

Скриншоты


Благодарности релизеру (0)

Торрент:

Статус:

Размер:

Зарегистрирован   [ 2012-07-29 23:01 ]

x закрыто

13.31 GB

 
Комментарии:





дайте скорости ? =)
 

СПС ЗА РЕЛИЗ ,ЩА КАЧНЁМ И ЗАЦЕНИМ :)))
 

А почему фильм не качается???????? (((((((((((((((((((((
 

а куда делась другая версия? Она хреновая была???
 

Другая версия была "самоделкой"
 

субтитры отключаются?
 

Спасибо!! мульт с глубоким(3D)смыслом
 

Другая версия была "самоделкой"
та версия была нормально кодированной,а эта сделано Бастером.
 

а мульт хоть нормальный ?
 

а мульт хоть нормальный ?
Классный мульт
 

Появился "ручной" рип http://torrents3d.ru/viewtopic.php?t=3053
Этот поглощен.
 

Топик был перенесен из форума Мультфильмы в форум Архив

Zagruzin