Торренты   
 
 

 

Лоракс в 3Д / The Lorax 3D (Крис Рено, Кайл Балда / Chris Renaud, Kyle Balda) [2012 г., Anamorph OverUnder]

Рейтинг 3D:
11 голосов
7.5
Рейтинг фильма:
13 голосов
7.3
 
Вы должны быть авторизированы,
чтобы ставить оценки


-- --Лоракс в 3Д / The Lorax 3D
Год выпуска: 2012
Страна: США (Universal Pictures, Illumination Entertainment)
Жанр: Мультфильм, Фэнтези, Комедия, Семейный
Продолжительность: 01:26:11
Перевод: Профессиональный (дублированный) (Русский и Украинский)
Русские субтитры: есть
Режиссер на русском: Крис Рено, Кайл Балда
Режиссер на английском: Chris Renaud, Kyle Balda
Роли дублировали / озвучивали:
Лоракс - Дэнни ДеВито / Дэнни ДеВито
Тед - Прохор Чеховской / Зак Эфрон
Одри - / Тейлор Свифт
Находкинс - Александр Гаврилин / Эд Хелмс
Бабушка Норма - Людмила Гнилова / Бетти Уайт
Мистер О'Хара - Сергей Бурунов / Роб Риггл
Мама Теда - Ирина Киреева / Дженни Слейт
Мама Находкинса - / Назим Пэдрад
Тётя Гризельда - / Элмари Вендел
Бретт / Чет - / Дэнни Кукси
Дядя Абб - / Стивен Тоболовски
Лесные животные - / Крис Рено
Описание: Недалекое будущее. Стоит нажать на кнопку — и мир изменится по твоему желанию: прямо под окном вырастут горы, во дворе зашумит океан. Единственная неприятность — все вокруг сделано из пластика. Но для влюбленного нет преград. Одно желание прекрасной девушки — увидеть последнее живое дерево — и он пускается в путь. На помощь ему приходит могущественный, но слегка приставучий Лоракс.
Доп. информация: выйдет лицензионная звуковая дорога обновлю....-

Знаете ли вы, что...

  • Дэнни ДеВито принял участие в русской, испанской и немецкой версиях озвучивания, в которой также как и в иностранных версиях, озвучивал Лоракса.
  • Герои Тед и Одри были названы в честь Доктора Сюсса (чье настоящее имя Теодор Сюсс Гейзель) и его второй жены Одри Гейзель.
  • Премьера мультфильма состоялась 2 марта 2012 — в 108 день рождения Доктора Сюсса.
- Премьера: 1 марта 2012
Бюджет: $70 000 000
Кассовые сборы: $324 330 500



-Качество: BDrip
Контейнер: MKV
Формат 3D: Anamorph OverUnder/Вертикальная анаморфная стереопара
Порядок ракурсов: левый ракурс первый
Видео кодек: x264
Аудио кодек: AC3
Видео: AVC / 1920х1080p / 23.976 fps / 7751 kbps
Аудио 1: Русский / AC3 / 48.0 KHz / 5.1 ch / 384 Kbps (Дубляж - "чистый звук")
Аудио 2: Украинский / AC3 / 48.0 KHz / 2.0 ch / 384 Kbps (Дубляж - line)
Аудио 3:Английский / AC3 / 48.0 KHz / 5.1 ch / 640 Kbps
Субтитры вшитые softsub (SRT):
#1 - Русские Полные
#2 - English Full

MediaInfo


Общее
Уникальный идентификатор : 237941783123507273448476864879474015938 (0xB301EBA6CB9E68BBA30F41693D887EC2)
Полное имя : E:\кино\TheLorax(3D)2012.halfOU.ClearSound(m@rik05).mkv
Формат : Matroska
Версия формата : Version 2
Размер файла : 5,63 Гбайт
Продолжительность : 1 ч. 26 м.
Общий поток : 9345 Кбит/сек
Название фильма : The Lorax (3D) 2012 (by m@rik05)
Дата кодирования : UTC 2012-08-01 16:31:17
Программа кодирования : mkvmerge v3.4.0 ('Rapunzel') сборка от May 15 2010 09:38:20
Библиотека кодирования : libebml v0.8.0 + libmatroska v0.9.0
Видео
Идентификатор : 1
Формат : AVC
Формат/Информация : Advanced Video Codec
Профиль формата : High@L4.1
Параметр CABAC формата : Да
Параметр ReFrames формата : 4 кадра
Идентификатор кодека : V_MPEG4/ISO/AVC
Продолжительность : 1 ч. 26 м.
Битрейт : 7751 Кбит/сек
Ширина : 1920 пикселей
Высота : 1080 пикселей
Соотношение сторон : 16:9
Частота кадров : 23,976 кадра/сек
Цветовое пространство : YUV
Субдискретизация насыщенности : 4:2:0
Битовая глубина : 8 бит
Тип развёртки : Прогрессивная
Бит/(Пиксели*Кадры) : 0.156
Размер потока : 4,67 Гбайт (83%)
Библиотека кодирования : x264 core 120 r2164 da19765
Настройки программы : cabac=1 / ref=4 / deblock=1:-3:-3 / analyse=0x3:0x133 / me=umh / subme=9 / psy=1 / psy_rd=1.00:0.15 / mixed_ref=1 / me_range=16 / chroma_me=1 / trellis=2 / 8x8dct=1 / cqm=0 / deadzone=21,11 / fast_pskip=1 / chroma_qp_offset=-3 / threads=6 / sliced_threads=0 / nr=0 / decimate=1 / interlaced=0 / bluray_compat=0 / constrained_intra=0 / bframes=6 / b_pyramid=2 / b_adapt=2 / b_bias=0 / direct=3 / weightb=1 / open_gop=0 / weightp=2 / keyint=250 / keyint_min=23 / scenecut=40 / intra_refresh=0 / rc_lookahead=60 / rc=crf / mbtree=1 / crf=18.0 / qcomp=0.70 / qpmin=0 / qpmax=69 / qpstep=4 / vbv_maxrate=40000 / vbv_bufsize=40000 / crf_max=0.0 / nal_hrd=none / ip_ratio=1.40 / aq=1:0.80
Default : Да
Forced : Нет
Аудио #1
Идентификатор : 2
Формат : AC-3
Формат/Информация : Audio Coding 3
Расширение режима : CM (complete main)
Параметр Endianness формата : Big
Идентификатор кодека : A_AC3
Продолжительность : 1 ч. 26 м.
Вид битрейта : Постоянный
Битрейт : 384 Кбит/сек
Каналы : 6 каналов
Расположение каналов : Front: L C R, Side: L R, LFE
Частота : 48,0 КГц
Битовая глубина : 16 бит
Метод сжатия : С потерями
Размер потока : 237 Мбайт (4%)
Заголовок : Dub
Язык : Russian
Default : Да
Forced : Да
Аудио #2
Идентификатор : 3
Формат : AC-3
Формат/Информация : Audio Coding 3
Расширение режима : CM (complete main)
Параметр Endianness формата : Big
Идентификатор кодека : A_AC3
Продолжительность : 1 ч. 26 м.
Вид битрейта : Постоянный
Битрейт : 384 Кбит/сек
Каналы : 2 канала
Расположение каналов : Front: L R
Частота : 48,0 КГц
Битовая глубина : 16 бит
Метод сжатия : С потерями
Размер потока : 237 Мбайт (4%)
Заголовок : Дубляж (line)
Язык : Ukrainian
Default : Нет
Forced : Нет
Аудио #3
Идентификатор : 4
Формат : AC-3
Формат/Информация : Audio Coding 3
Расширение режима : CM (complete main)
Параметр Endianness формата : Big
Идентификатор кодека : A_AC3
Продолжительность : 1 ч. 26 м.
Вид битрейта : Постоянный
Битрейт : 640 Кбит/сек
Каналы : 6 каналов
Расположение каналов : Front: L C R, Side: L R, LFE
Частота : 48,0 КГц
Битовая глубина : 16 бит
Метод сжатия : С потерями
Размер потока : 395 Мбайт (7%)
Заголовок : original
Язык : English
Default : Нет
Forced : Нет
Текст #1
Идентификатор : 5
Формат : UTF-8
Идентификатор кодека : S_TEXT/UTF8
Идентификатор кодека/Информация : UTF-8 Plain Text
Заголовок : полные
Язык : Russian
Default : Нет
Forced : Нет
Текст #2
Идентификатор : 6
Формат : UTF-8
Идентификатор кодека : S_TEXT/UTF8
Идентификатор кодека/Информация : UTF-8 Plain Text
Заголовок : full
Язык : English
Default : Нет
Forced : Нет
Меню
00:00:00.000 : en:00:00:00.000
00:04:13.253 : en:00:04:13.253
00:06:38.898 : en:00:06:38.898
00:10:05.396 : en:00:10:05.396
00:13:56.961 : en:00:13:56.961
00:16:40.875 : en:00:16:40.875
00:21:31.707 : en:00:21:31.707
00:28:20.198 : en:00:28:20.198
00:32:51.136 : en:00:32:51.136
00:39:51.931 : en:00:39:51.931
00:42:28.963 : en:00:42:28.963
00:45:47.787 : en:00:45:47.787
00:51:24.665 : en:00:51:24.665
00:56:36.226 : en:00:56:36.226
00:59:11.381 : en:00:59:11.381
01:03:22.257 : en:01:03:22.257
01:07:17.867 : en:01:07:17.867
01:12:40.064 : en:01:12:40.064
01:16:09.648 : en:01:16:09.648
01:20:28.240 : en:01:20:28.240

Скриншоты


Благодарности релизеру (15)

Торрент:

Статус:

Размер:

Зарегистрирован   [ 2012-08-01 21:20 ]

проверено

5.63 GB