Торренты   
 
 

 

Уличные танцы 2 / StreetDance 2 [2012, BDrip, half1080p, Anamorph OverUnder]

Рейтинг 3D:
12 голосов
7.6
Рейтинг фильма:
12 голосов
5.9
 
Вы должны быть авторизированы,
чтобы ставить оценки


-Уличные танцы 2 / StreetDance 2 Год выпуска: 2012
Страна: Великобритания, Германия
Жанр: Мелодрама, Танцы, Музыка
Продолжительность: 01:24:56
Перевод: Профессиональный (полное дублирование)
Режиссер: Макс Джива, Дания Пасквини / Max Giwa, Dania Pasquini
В ролях:
Эш - Фальк Хеншел
Эва - София Бутелла
Ману - Том Конти
Стеф - Стефани Нгуйен / Вероника Саркисова
Бэм-Бэм - Элизабетта Ди Карло
Али - Ali Ramdani / Михаил Тихонов
Йо-Йо - Дэльфин Нгуйен
Таг - Ли Крэвен
Описание: Уличный танцор Эш жаждет реванша за проигрыш на конкурсе Streetdance, и хочет собрать команду, которой не будет равных. В поисках, которые забрасывают его в самые разные уголки мира, Эш встречает девушку Еву, танцующую сальсу, и влюбляется в нее. В Еве он видит свое счастье, свой собственный танец, свою победу… Но завоевать сердце этой девушки не так просто.
Свобода самовыражения и мастерство импровизации, страсть сальсы и дерзость ринга — все это танцы, танцы, танцы — в школах, в клубах, на улицах Рима, Парижа, Лондона, Нью-Йорка.--Премьера: 29 марта 2012
Бюджет: £ 7 000 000
Кассовые сборы: $18 582 905

Проверено на встроенном плейере ТВ Samsung UE-C7000--Формат 3d: Anamorph OverUnder
Качество: BDrip
Контейнер: MKV-Видео: AVC / 23,976 fps / 1920х1080p / 13.9 Mbps
Аудио:
#1 - Русский / AC3 / 48 KHz / 5.1 ch / 640 Kbps (Дубляж - BD)
#3 - Английский / AC3 / 48 KHz / 5.1 ch / 640 Kbps
Субтитры Вшитые softsub SRT:
#1 - Русские Полные
#2 - English Full
#3 - English SDH

MediaInfo

General
UniqueID : 193994999686050276138313322767175428159 (0x91F213F0F8937A98A9197A34AFF0A83F)
Complete name : F:\Downloads\StreetDance2(3D)2012.halfOU(Ash61).mkv
Format : Matroska
File size : 9.22 GiB
Duration : 1h 24mn
Overall bit rate : 15.5 Mbps
Movie name : StreetDance 2 (3D) 2012 (by Ash61)
Encoded date : UTC 2012-08-03 08:15:52
Writing application : mkvmerge v3.4.0 ('Rapunzel') сборка от May 15 2010 09:38:20
Writing library : libebml v0.8.0 + libmatroska v0.9.0
Video
ID : 1
Format : AVC
Format/Info : Advanced Video Codec
Format profile : High@L4.1
Format settings, CABAC : Yes
Format settings, ReFrames : 4 frames
Format settings, GOP : M=1, N=16
Codec ID : V_MPEG4/ISO/AVC
Duration : 1h 24mn
Bit rate : 13.9 Mbps
Width : 1 920 pixels
Height : 1 080 pixels
Display aspect ratio : 16:9
Frame rate : 23.976 fps
Color space : YUV
Chroma subsampling : 4:2:0
Bit depth : 8 bits
Scan type : Progressive
Bits/(Pixel*Frame) : 0.281
Stream size : 8.28 GiB (90%)
Title : BDrip by Ash61
Writing library : x264 core 119 r2106 07efeb4
Encoding settings : cabac=1 / ref=4 / deblock=1:-3:-3 / analyse=0x3:0x113 / me=umh / subme=9 / psy=1 / psy_rd=1.00:0.15 / mixed_ref=1 / me_range=16 / chroma_me=1 / trellis=2 / 8x8dct=1 / cqm=0 / deadzone=21,11 / fast_pskip=1 / chroma_qp_offset=-3 / threads=3 / sliced_threads=0 / nr=0 / decimate=1 / interlaced=0 / bluray_compat=0 / constrained_intra=0 / bframes=6 / b_pyramid=2 / b_adapt=2 / b_bias=0 / direct=3 / weightb=1 / open_gop=0 / weightp=2 / keyint=250 / keyint_min=23 / scenecut=40 / intra_refresh=0 / rc_lookahead=60 / rc=crf / mbtree=1 / crf=17.0 / qcomp=0.60 / qpmin=10 / qpmax=51 / qpstep=4 / vbv_maxrate=40000 / vbv_bufsize=40000 / crf_max=0.0 / nal_hrd=none / frame-packing=4 / ip_ratio=1.40 / aq=1:0.70
Language : English
Audio #1
ID : 2
Format : AC-3
Format/Info : Audio Coding 3
Mode extension : CM (complete main)
Codec ID : A_AC3
Duration : 1h 24mn
Bit rate mode : Constant
Bit rate : 640 Kbps
Channel(s) : 6 channels
Channel positions : Front: L C R, Side: L R, LFE
Sampling rate : 48.0 KHz
Bit depth : 16 bits
Compression mode : Lossy
Stream size : 389 MiB (4%)
Title : Дубляж (BD)
Language : Russian
Audio #2
ID : 3
Format : AC-3
Format/Info : Audio Coding 3
Mode extension : CM (complete main)
Codec ID : A_AC3
Duration : 1h 24mn
Bit rate mode : Constant
Bit rate : 640 Kbps
Channel(s) : 6 channels
Channel positions : Front: L C R, Side: L R, LFE
Sampling rate : 48.0 KHz
Bit depth : 16 bits
Compression mode : Lossy
Stream size : 389 MiB (4%)
Title : Original
Language : English
Text #1
ID : 4
Format : UTF-8
Codec ID : S_TEXT/UTF8
Codec ID/Info : UTF-8 Plain Text
Title : Полные
Language : Russian
Text #2
ID : 5
Format : UTF-8
Codec ID : S_TEXT/UTF8
Codec ID/Info : UTF-8 Plain Text
Title : Full
Language : English
Text #3
ID : 6
Format : UTF-8
Codec ID : S_TEXT/UTF8
Codec ID/Info : UTF-8 Plain Text
Title : SDH
Language : English
Menu
00:00:00.000 : :1
00:10:29.796 : :2
00:16:55.973 : :3
00:22:43.612 : :4
00:29:28.058 : :5
00:38:23.968 : :6
00:43:38.115 : :7
00:49:39.059 : :8
00:57:08.759 : :9
01:02:48.014 : :10
01:07:11.903 : :11
01:13:45.296 : :12

Скриншоты

Остальные раздачи этого фильма (3)
Благодарности релизеру (21)

Торрент:

Статус:

Размер:

Зарегистрирован   [ 2012-08-03 16:10 ]

проверено

9.22 GB

 
 Мнение о фильме (4)





За раздачу спасибо! А сам фильм....ну...как сказать-фильм..скорее мюзикл) Мне,да и жене не понравился совершенно: то ли я в сказки верить перестал, то ли снято ну совершенно не реалистично. На протяжении всего фильма возникало чувство,что меня разводят, как маленького дитёнка)))Ездить на лоурайдах (пару машин было вообще эксклюзивных), микшеры по 5 тыр, аккустика того-же покроя....и это всё при постоянном упоминании, какие же они бедные, и как им смертельно необходимо выиграть денежку на тубе(( Ах да!!! Они же все официантами трудятся)))Причём настолько блатными,что умудряются "обслуживать" самые кошерные вечерухи) Чувство подставы и обмана не покидало весь процесс просмотра. Что же касается 3Д, то он жутко посредственнен.Мне кажется что он был "прилеплен" для конкретного продвижения в массы( Ни глубины,ни вылетов- одним словом : ПЕЧАЛЬБЕДА) П.С. Да не даст мне соврать жена: я, без просмотра демки, буквально через 15 минут рассказал,чем всё закончится)И не ошибся((
 

Фильм мне понравился! Красивый видеоряд, отличное изображение, объемность 3D замечательная! звук и сама музыка прекрасные. Ставлю твердую 9 - тку по 10-ти балльной шкале. Смотрел на телевизоре LG 42 LM 761S.
 

Фильм интересный!3D отличное,качество изображения на высоте!!!
 

Спасибо! легкий фильм