Торренты   
 
 


Тор: Легенда викингов / Legends of Valhalla: Thor [2011 г., BDrip, Anamorph OverUnder]

Рейтинг 3D:
9 голосов
5.6
Рейтинг фильма:
9 голосов
5.6
 
Вы должны быть авторизированы,
чтобы ставить оценки



Тор: Легенда викингов / Legends of Valhalla: Thor

Год выпуска: 2011
Страна: Германия, Исландия, Ирландия
Жанр: мультфильм, комедия, приключения, семейный
Продолжительность: 01:22:56
Перевод: Профессиональный (полное дублирование)-Режиссер: Оускар Йоунассон, Тоби Генкель
Сценарий: Мик Касале, Фридрик Эрлингссон, Марк Ходкинсон, ...
Продюсер: Хильмар Сигурдссон, Арнар Ториссон, Эмели Кристианс, ...
Композитор: Стефен МакКеон
Художник: Гуннар Карлссон, Tómas Þorbjörn Ómarsson
Монтаж: Элизабет Рональдсдоттир
Роли озвучивали:
Джастин Грегг, Пол Тайлак, Николя Кохлан, Лиз Ллойд, Алан Стэнфорд, Эммет Скэнлэн, Дж. Дрю Лукас, Мэри Мюррэй, Леса Турман, Гари Хецлер
Роли дублировали:
Прохор Чеховской, Диомид Виноградов, Александр Груздев, Вероника Саркисова, Денис Строев-Описание:
Самоуверенный подросток, в арсенале которого находятся магическое оружие, присоединяется к борьбе против злой королевы и ее армии великанов.-Проверено на встроенном плеере ТВ LG 42LW4500
Качество: BDrip
Контейнер: MKV
Формат 3D: Half OverUnder / Вертикальная анаморфная стереопара
Видео кодек: x264
Аудио кодек: AC3
Видео: AVC / 1920х1080p / 23,976 fps / 14000 Kbps
Аудио: Русский / AC3 / 48 KHz / 5.1 ch / 640 Kbps

MediaInfo

Код:
Общее
Уникальный идентификатор                 : 243720717726291988943139422133317670379 (0xB75AE7201B59C1FBB27FFB5B081615EB)
Полное имя                               : G:\LegendsOfValhalla.Thor.3D.2011.BD3DRip.Half.OU.x264.AC3.3D-RuGroup.mkv
Формат                                   : Matroska
Версия формата                           : Version 2
Размер файла                             : 8,68 Гбайт
Продолжительность                        : 1 ч. 22 м.
Общий поток                              : 15,0 Мбит/сек
Название фильма                          : Legends of Valhalla: Thor rip by 3D-RuGroup
Дата кодирования                         : UTC 2012-08-05 21:07:28
Программа кодирования                    : mkvmerge v3.4.0 ('Rapunzel') сборка от May 15 2010 09:38:20
Библиотека кодирования                   : libebml v0.8.0 + libmatroska v0.9.0
Видео
Идентификатор                            : 1
Формат                                   : AVC
Формат/Информация                        : Advanced Video Codec
Профиль формата                          : High@L4.1
Параметр CABAC формата                   : Да
Параметр ReFrames формата                : 4 кадра
Идентификатор кодека                     : V_MPEG4/ISO/AVC
Продолжительность                        : 1 ч. 22 м.
Битрейт                                  : 14,0 Мбит/сек
Ширина                                   : 1920 пикселей
Высота                                   : 1080 пикселей
Соотношение сторон                       : 16:9
Частота кадров                           : 23,976 кадра/сек
Цветовое пространство                    : YUV
Субдискретизация насыщенности            : 4:2:0
Битовая глубина                          : 8 бит
Тип развёртки                            : Прогрессивная
Бит/(Пиксели*Кадры)                      : 0.283
Размер потока                            : 8,14 Гбайт (94%)
Заголовок                                : Legends of Valhalla: Thor rip by itsamna aka elephant
Библиотека кодирования                   : x264 core 116 r2074 2641b9e
Настройки программы                      : cabac=1 / ref=4 / deblock=1:-3:-3 / analyse=0x3:0x133 / me=umh / subme=9 / psy=1 / psy_rd=1.00:0.15 / mixed_ref=1 / me_range=32 / chroma_me=1 / trellis=2 / 8x8dct=1 / cqm=0 / deadzone=21,11 / fast_pskip=0 / chroma_qp_offset=-3 / threads=3 / sliced_threads=0 / nr=0 / decimate=1 / interlaced=0 / bluray_compat=0 / constrained_intra=0 / bframes=7 / b_pyramid=2 / b_adapt=2 / b_bias=0 / direct=3 / weightb=1 / open_gop=0 / weightp=2 / keyint=250 / keyint_min=23 / scenecut=40 / intra_refresh=0 / rc_lookahead=60 / rc=crf / mbtree=1 / crf=18.0 / qcomp=0.90 / qpmin=0 / qpmax=69 / qpstep=4 / vbv_maxrate=50000 / vbv_bufsize=50000 / crf_max=0.0 / nal_hrd=none / ip_ratio=1.40 / aq=1:0.70
Default                                  : Да
Forced                                   : Нет
Аудио
Идентификатор                            : 2
Формат                                   : AC-3
Формат/Информация                        : Audio Coding 3
Расширение режима                        : CM (complete main)
Идентификатор кодека                     : A_AC3
Продолжительность                        : 1 ч. 22 м.
Вид битрейта                             : Постоянный
Битрейт                                  : 640 Кбит/сек
Каналы                                   : 6 каналов
Расположение каналов                     : Front: L C R, Side: L R, LFE
Частота                                  : 48,0 КГц
Битовая глубина                          : 16 бит
Метод сжатия                             : С потерями
Размер потока                            : 380 Мбайт (4%)
Заголовок                                : Dub
Язык                                     : Russian
Default                                  : Да
Forced                                   : Нет
Меню
00:00:00.000                             : :01
00:08:11.324                             : :02
00:15:34.642                             : :03
00:23:52.806                             : :04
00:31:51.118                             : :05
00:39:02.257                             : :06
00:46:39.672                             : :07
00:54:32.436                             : :08
01:02:39.547                             : :09
01:12:01.901                             : :10
01:18:45.721                             : :11

Скриншоты

Остальные раздачи этого фильма (4)
Благодарности релизеру (7)

Торрент:

Статус:

Размер:

Зарегистрирован   [ 2012-08-06 01:35 ]

проверено

8.68 GB

 
 Мнение о фильме (2)





Хрень)
 

Мульт на 4 ку, всё таки европа не так качественно делает мульты как америка