Торренты   
 
 


London 2012. Olympics games. Opening Ceremony [2012 г., Anamorph SideBySide]

Рейтинг 3D:
Пока никто не голосовал
Рейтинг фильма:
1 голосов
8.0
 
Вы должны быть авторизированы,
чтобы ставить оценки


London 2012. Olympics games. Opening Ceremony
Год выпуска: 2012
Страна: Великобритания
Жанр: Спорт, шоу, документальный
Продолжительность: 1 ч. 19 м. + 1 ч. 33 м. + 45 м.
Описание: Церемония открытия летних ! Олимпийских Игр состоялась 27 июля 2012 года
в 21:00 BST (UTC+1) на Олимпийском стадионе в Лондоне.
Представление называлось «Острова Чудес» (Isles of Wonder) постановщиком которого стал "оскароносный" режиссер Дэнни Бойл. Сюжет до последнего времени держался в секрете. Было лишь известно, что организаторы надеются превзойти по размаху и сюрпризам все предыдущие церемонии, включая и прежнего рекордсмена по масштабам и расходам - Пекин.
Кульминационной частью любой церемонии открытия Игр является проход национальных команд перед зрителями под государственными флагами. Парад сборных является одновременно самой тяжелой и интересной частью, как для зрителей, так и для атлетов.
Завершилась церемония открытия грандиозным салютом под бессмертный хит The Beatles Hey Jude, который исполнил автор песни сэр Пол Маккартни.
Запись трансляции состоит из трёх частей:
- Представление
- Проход команд по стадиону
- Официальная церемония открытия
Формат 3d: Anamorph SideBySide
Порядок ракурсов: Параллельная пара

MI

Видео:
Общее
Полное имя: Opening Ceremony 2012 Olympics 1 3D SBS.divx Формат : AVI Формат/Информация : Audio Video Interleave Размер файла : 1,93 Гбайт Продолжительность : 1 ч. 19 м. Общий поток : 3451 Кбит/сек Видео Идентификатор : 0 Формат : MPEG-4 Visual Параметр BVOP формата : 1 Параметр QPel формата : Нет Параметр GMC формата : Без точки перехода Параметр матрицы формата : Default (H.263) Режим смешивания : Сжатый битовый поток Идентификатор кодека : DX50 Идентификатор кодека/Подсказка : DivX 5 Продолжительность : 1 ч. 19 м. Битрейт : 3313 Кбит/сек Ширина : 1280 пикселей Высота : 720 пикселей Соотношение сторон : 16:9 Частота кадров : 25,000 кадров/сек Цветовое пространство : YUV Субдискретизация насыщенности : 4:2:0 Битовая глубина : 8 бит Тип развёртки : Прогрессивная Метод сжатия : С потерями Бит/(Пиксели*Кадры) : 0.144 Размер потока : 1,85 Гбайт (96%) Заголовок : Video Библиотека кодирования : DivX 3330 Аудио Идентификатор : 1 Формат : MPEG Audio Версия формата : Version 1 Профиль формата : Layer 3 Режим : Joint stereo Расширение режима : MS Stereo Идентификатор кодека : 55 Идентификатор кодека/Подсказка : MP3 Продолжительность : 1 ч. 19 м. Вид битрейта : Постоянный Битрейт : 128 Кбит/сек Каналы : 2 канала Частота : 44,1 КГц Метод сжатия : С потерями Размер потока : 73,2 Мбайт (4%) Выравнивание : Разделение по промежуткам Продолжительность промежутка : 40 мс. (1,00 видеокадр) Время предзагрузки промежутка : 500 мс. Заголовок : Audio
Общее
Полное имя: Opening Ceremony 2012 Olympics 2 3D SBS.divx Формат : AVI Формат/Информация : Audio Video Interleave Размер файла : 2,25 Гбайт Продолжительность : 1 ч. 33 м. Общий поток : 3451 Кбит/сек Видео Идентификатор : 0 Формат : MPEG-4 Visual Параметр BVOP формата : 1 Параметр QPel формата : Нет Параметр GMC формата : Без точки перехода Параметр матрицы формата : Default (H.263) Режим смешивания : Сжатый битовый поток Идентификатор кодека : DX50 Идентификатор кодека/Подсказка : DivX 5 Продолжительность : 1 ч. 33 м. Битрейт : 3313 Кбит/сек Ширина : 1280 пикселей Высота : 720 пикселей Соотношение сторон : 16:9 Частота кадров : 25,000 кадров/сек Цветовое пространство : YUV Субдискретизация насыщенности : 4:2:0 Битовая глубина : 8 бит Тип развёртки : Прогрессивная Метод сжатия : С потерями Бит/(Пиксели*Кадры) : 0.144 Размер потока : 2,16 Гбайт (96%) Заголовок : Video Библиотека кодирования : DivX 3330 Аудио Идентификатор : 1 Формат : MPEG Audio Версия формата : Version 1 Профиль формата : Layer 3 Режим : Joint stereo Расширение режима : MS Stereo Идентификатор кодека : 55 Идентификатор кодека/Подсказка : MP3 Продолжительность : 1 ч. 33 м. Вид битрейта : Постоянный Битрейт : 128 Кбит/сек Каналы : 2 канала Частота : 44,1 КГц Метод сжатия : С потерями Размер потока : 85,5 Мбайт (4%) Выравнивание : Разделение по промежуткам Продолжительность промежутка : 40 мс. (1,00 видеокадр) Время предзагрузки промежутка : 500 мс. Заголовок : Audio
Общее
Полное имя: Opening Ceremony 2012 Olympics 3 3D SBS.divx Формат : AVI Формат/Информация : Audio Video Interleave Размер файла : 1,11 Гбайт Продолжительность : 45 м. Общий поток : 3451 Кбит/сек Видео Идентификатор : 0 Формат : MPEG-4 Visual Параметр BVOP формата : 1 Параметр QPel формата : Нет Параметр GMC формата : Без точки перехода Параметр матрицы формата : Default (H.263) Режим смешивания : Сжатый битовый поток Идентификатор кодека : DX50 Идентификатор кодека/Подсказка : DivX 5 Продолжительность : 45 м. Битрейт : 3313 Кбит/сек Ширина : 1280 пикселей Высота : 720 пикселей Соотношение сторон : 16:9 Частота кадров : 25,000 кадров/сек Цветовое пространство : YUV Субдискретизация насыщенности : 4:2:0 Битовая глубина : 8 бит Тип развёртки : Прогрессивная Метод сжатия : С потерями Бит/(Пиксели*Кадры) : 0.144 Размер потока : 1,06 Гбайт (96%) Заголовок : Video Библиотека кодирования : DivX 3330 Аудио Идентификатор : 1 Формат : MPEG Audio Версия формата : Version 1 Профиль формата : Layer 3 Режим : Joint stereo Расширение режима : MS Stereo Идентификатор кодека : 55 Идентификатор кодека/Подсказка : MP3 Продолжительность : 45 м. Вид битрейта : Постоянный Битрейт : 128 Кбит/сек Каналы : 2 канала Частота : 44,1 КГц Метод сжатия : С потерями Размер потока : 42,0 Мбайт (4%) Выравнивание : Разделение по промежуткам Продолжительность промежутка : 40 мс. (1,00 видеокадр) Время предзагрузки промежутка : 500 мс. Заголовок : Audio

Скриншоты







Благодарности релизеру (2)

Торрент:

Статус:

Размер:

Зарегистрирован   [ 2012-08-09 21:28 ]

проверено

5.29 GB